<?xml version="1.0" standalone="no"?>
<!DOCTYPE svg PUBLIC "-//W3C//DTD SVG 1.1//EN" "http://www.w3.org/Graphics/SVG/1.1/DTD/svg11.dtd" >
<svg xmlns="http://www.w3.org/2000/svg" xmlns:xlink="http://www.w3.org/1999/xlink" version="1.1">
<metadata>
Created by FontForge 20170924 at Mon Apr 27 13:28:52 2020
 By www-data
\(c\) 2020 Braille Institute of America, Inc., a 501\(c\)\(3\) Charitable Organization.
</metadata>
<defs>
<font id="AtkinsonHyperlegible-Regular" horiz-adv-x="539" >
  <font-face 
    font-family="Atkinson Hyperlegible"
    font-weight="400"
    font-stretch="normal"
    units-per-em="1000"
    panose-1="0 0 0 0 0 0 0 0 0 0"
    ascent="800"
    descent="-200"
    x-height="495"
    cap-height="668"
    bbox="-58 -251 1290 886"
    underline-thickness="57"
    underline-position="-107"
    stemh="67"
    stemv="84"
    unicode-range="U+000D-25CA"
  />
<missing-glyph horiz-adv-x="527" 
d="M50 0v700h427v-700h-427zM79 21h370l-185 308zM71 49l180 301l-180 300v-601zM457 47v605l-181 -302zM263 371l186 309h-371z" />
    <glyph glyph-name=".notdef" horiz-adv-x="527" 
d="M50 0v700h427v-700h-427zM79 21h370l-185 308zM71 49l180 301l-180 300v-601zM457 47v605l-181 -302zM263 371l186 309h-371z" />
    <glyph glyph-name="NULL" horiz-adv-x="0" 
 />
    <glyph glyph-name="uni000D" unicode="&#xd;" horiz-adv-x="0" 
 />
    <glyph glyph-name="space" unicode=" " horiz-adv-x="280" 
 />
    <glyph glyph-name="zero" unicode="0" horiz-adv-x="648" 
d="M324 -12c-172 0 -264 123 -264 347c0 222 92 345 264 345s264 -123 264 -345c0 -224 -92 -347 -264 -347zM151 335c0 -175 55 -273 173 -273c47 0 84 16 111 45l-264 379c-14 -41 -20 -92 -20 -151zM324 606c-44 0 -80 -14 -107 -40l263 -376c11 39 17 88 17 145
c0 174 -56 271 -173 271z" />
    <glyph glyph-name="one" unicode="1" horiz-adv-x="402" 
d="M42 571c96 0 177 15 206 97h56v-668h-84v504h-178v67z" />
    <glyph glyph-name="two" unicode="2" horiz-adv-x="549" 
d="M515 0h-481v75c236 174 374 301 374 419c0 69 -46 116 -125 116c-63 0 -124 -31 -140 -112l-84 24c24 97 108 158 226 158c123 0 212 -63 212 -175c0 -155 -163 -293 -350 -428h368v-77z" />
    <glyph glyph-name="three" unicode="3" horiz-adv-x="574" 
d="M42 151l83 24c15 -70 63 -117 148 -117c88 0 151 46 151 129c0 128 -153 127 -206 127v76c75 0 189 6 189 111c0 72 -59 109 -130 109c-82 0 -130 -46 -143 -112l-82 24c24 95 104 158 227 158c116 0 216 -46 216 -170c0 -68 -39 -126 -109 -155
c100 -31 128 -97 128 -167c0 -135 -115 -200 -242 -200c-135 0 -207 72 -230 163z" />
    <glyph glyph-name="four" unicode="4" horiz-adv-x="614" 
d="M38 165v79l331 424h85v-424h122v-79h-122v-165h-84v165h-332zM129 244h241v309z" />
    <glyph glyph-name="five" unicode="5" horiz-adv-x="583" 
d="M54 151l82 24c16 -73 61 -117 148 -117c80 0 149 58 149 161c0 111 -78 159 -150 159c-69 0 -115 -41 -129 -74l-82 24l41 340h383v-81h-315l-23 -187c35 34 89 50 144 50c117 0 219 -83 219 -230c0 -153 -113 -232 -237 -232c-135 0 -205 73 -230 163z" />
    <glyph glyph-name="six" unicode="6" horiz-adv-x="598" 
d="M303 -12c-167 0 -243 116 -243 322c0 189 67 370 261 370c99 0 159 -47 188 -107l-85 -25c-20 39 -60 62 -113 62c-104 0 -160 -103 -164 -258c30 52 87 93 176 93c124 0 215 -93 215 -227c0 -124 -92 -230 -235 -230zM157 215c0 -92 57 -156 146 -156
c88 0 145 64 145 156s-57 156 -145 156c-89 0 -146 -64 -146 -156z" />
    <glyph glyph-name="seven" unicode="7" horiz-adv-x="510" 
d="M93 0l290 587h-368v81h461v-81l-278 -587h-105z" />
    <glyph glyph-name="eight" unicode="8" horiz-adv-x="615" 
d="M60 188c0 86 49 148 123 178c-35 33 -57 80 -57 133c0 100 81 181 181 181c101 0 182 -81 182 -181c0 -53 -22 -100 -57 -133c74 -30 123 -92 123 -178c0 -128 -108 -200 -248 -200c-139 0 -247 72 -247 200zM151 188c0 -78 61 -126 156 -126c96 0 157 48 157 126
s-61 129 -157 129c-95 0 -156 -51 -156 -129zM200 500c0 -61 48 -109 107 -109s107 48 107 109c0 59 -48 106 -107 106s-107 -47 -107 -106z" />
    <glyph glyph-name="nine" unicode="9" horiz-adv-x="598" 
d="M299 201c-131 0 -239 107 -239 240c0 131 106 238 239 238s239 -105 239 -240c0 -30 -6 -61 -18 -91c-13 -33 -101 -198 -203 -348h-104s84 116 139 207c-17 -4 -34 -6 -53 -6zM299 594c-85 0 -153 -69 -153 -153c0 -85 68 -154 153 -154c86 0 155 69 155 154
c0 84 -69 153 -155 153z" />
    <glyph glyph-name="A" unicode="A" horiz-adv-x="626" 
d="M10 0l251 669h105l250 -669h-100l-51 146h-304l-51 -146h-100zM313 574l-123 -347h246z" />
    <glyph glyph-name="B" unicode="B" horiz-adv-x="619" 
d="M76 0v668h269c145 0 207 -81 207 -166c0 -53 -25 -109 -70 -147c66 -35 99 -99 99 -163c0 -96 -74 -192 -220 -192h-285zM170 308v-229h201c74 0 113 58 113 116c0 57 -38 113 -114 113h-200zM355 589h-185v-207h185c68 0 102 51 102 102c0 52 -35 105 -102 105z" />
    <glyph glyph-name="C" unicode="C" horiz-adv-x="656" 
d="M353 -12c-191 0 -303 144 -303 347c0 208 122 345 311 345c112 0 207 -54 253 -151l-82 -30c-30 60 -89 102 -176 102c-118 0 -210 -92 -210 -266c0 -168 88 -268 213 -268c87 0 146 41 177 102l82 -30c-48 -99 -147 -151 -265 -151z" />
    <glyph glyph-name="D" unicode="D" horiz-adv-x="673" 
d="M76 0v668h182c212 0 365 -79 365 -333c0 -256 -153 -335 -365 -335h-182zM170 589v-510h86c138 0 271 28 271 256c0 226 -133 254 -271 254h-86z" />
    <glyph glyph-name="E" unicode="E" horiz-adv-x="567" 
d="M76 668h453v-81h-359v-203h265v-81h-265v-222h359v-81h-453v668z" />
    <glyph glyph-name="F" unicode="F" horiz-adv-x="548" 
d="M76 668h434v-81h-340v-203h340v-81h-340v-303h-94v668z" />
    <glyph glyph-name="G" unicode="G" horiz-adv-x="710" 
d="M50 335c0 208 122 345 311 345c112 0 207 -54 254 -151l-83 -30c-30 60 -89 102 -176 102c-118 0 -210 -92 -210 -266c0 -168 86 -268 210 -268c89 0 197 37 197 175v22h-195v81h284v-345h-54l-25 84c-43 -68 -121 -96 -211 -96c-192 0 -302 144 -302 347z" />
    <glyph glyph-name="H" unicode="H" horiz-adv-x="690" 
d="M76 668h94v-284h350v284h94v-668h-94v303h-350v-303h-94v668z" />
    <glyph glyph-name="I" unicode="I" horiz-adv-x="414" 
d="M66 74h94v520h-94v74h282v-74h-94v-520h94v-74h-282v74z" />
    <glyph glyph-name="J" unicode="J" horiz-adv-x="510" 
d="M15 189l87 25c-3 -101 55 -149 122 -149c54 0 116 27 116 148v455h94v-456c0 -146 -79 -224 -210 -224c-125 0 -203 68 -209 201z" />
    <glyph glyph-name="K" unicode="K" horiz-adv-x="627" 
d="M76 668h94v-336l301 336h117l-255 -279l284 -389h-115l-232 320l-100 -110v-210h-94v668z" />
    <glyph glyph-name="L" unicode="L" 
d="M76 0v668h94v-587h359v-81h-453z" />
    <glyph glyph-name="M" unicode="M" horiz-adv-x="820" 
d="M76 668h156l178 -546l178 546h156v-668h-94v570l-193 -570h-93l-194 570v-570h-94v668z" />
    <glyph glyph-name="N" unicode="N" horiz-adv-x="689" 
d="M76 668h139l304 -568v568h94v-668h-138l-305 571v-571h-94v668z" />
    <glyph glyph-name="O" unicode="O" horiz-adv-x="727" 
d="M50 335c0 201 121 345 313 345c193 0 314 -144 314 -345c0 -202 -121 -347 -314 -347c-192 0 -313 145 -313 347zM146 335c0 -173 96 -268 217 -268c122 0 218 95 218 268c0 172 -96 266 -218 266c-121 0 -217 -94 -217 -266z" />
    <glyph glyph-name="P" unicode="P" horiz-adv-x="601" 
d="M76 1v667h209c163 0 278 -37 278 -202s-115 -200 -278 -200h-115v-265h-94zM293 589h-123v-242h123c97 0 174 10 174 119s-77 123 -174 123z" />
    <glyph glyph-name="Q" unicode="Q" horiz-adv-x="753" 
d="M363 -12c-192 0 -313 145 -313 347c0 201 121 345 313 345c193 0 314 -144 314 -345c0 -75 -17 -141 -47 -196l123 -115l-64 -68l-117 109c-52 -49 -124 -77 -209 -77zM363 601c-121 0 -217 -94 -217 -266c0 -173 96 -268 217 -268c56 0 107 20 145 59l-179 168l64 68
l166 -156c14 36 22 79 22 129c0 172 -96 266 -218 266z" />
    <glyph glyph-name="R" unicode="R" horiz-adv-x="618" 
d="M170 0h-94v668h212c163 0 278 -32 278 -192c0 -91 -30 -166 -185 -188l207 -288h-115l-203 281h-100v-281zM295 589h-125v-229h125c98 0 175 11 175 114s-77 115 -175 115z" />
    <glyph glyph-name="S" unicode="S" horiz-adv-x="596" 
d="M40 146l87 26c23 -72 100 -105 173 -105c80 0 157 39 157 119c0 60 -44 90 -171 116c-103 22 -240 52 -240 199c0 113 122 179 245 179c94 0 190 -39 232 -125l-86 -25c-26 47 -89 71 -150 71c-73 0 -144 -34 -144 -104c0 -75 81 -92 172 -111c116 -25 241 -59 241 -204
c0 -124 -129 -194 -260 -194c-110 0 -221 50 -256 158z" />
    <glyph glyph-name="T" unicode="T" horiz-adv-x="558" 
d="M10 587v81h538v-81h-222v-587h-94v587h-222z" />
    <glyph glyph-name="U" unicode="U" horiz-adv-x="690" 
d="M345 -12c-194 0 -269 96 -269 291v389h94v-396c0 -132 47 -203 175 -203s175 71 175 203v396h94v-389c0 -195 -74 -291 -269 -291z" />
    <glyph glyph-name="V" unicode="V" horiz-adv-x="589" 
d="M10 668h103l181 -558l182 558h103l-230 -668h-110z" />
    <glyph glyph-name="W" unicode="W" horiz-adv-x="840" 
d="M178 0l-168 668h103l130 -552l122 552h110l122 -552l130 552h103l-167 -668h-114l-129 552l-129 -552h-113z" />
    <glyph glyph-name="X" unicode="X" horiz-adv-x="623" 
d="M10 0l245 344l-231 324h112l175 -245l175 245h113l-231 -324l245 -344h-113l-189 265l-188 -265h-113z" />
    <glyph glyph-name="Y" unicode="Y" horiz-adv-x="595" 
d="M10 668h103l185 -323l184 323h103l-240 -409v-259h-94v259z" />
    <glyph glyph-name="Z" unicode="Z" horiz-adv-x="607" 
d="M44 0v81l394 506h-379v81h489v-81l-392 -506h407v-81h-519z" />
    <glyph glyph-name="a" unicode="a" horiz-adv-x="526" 
d="M209 -12c-94 0 -171 52 -171 143c0 118 132 152 335 175c3 84 -32 131 -112 131c-60 0 -99 -29 -110 -77l-81 24c27 76 101 120 190 120c137 0 196 -62 197 -201l1 -116c1 -83 8 -140 17 -187h-77l-20 68c-30 -50 -82 -80 -169 -80zM380 239c-152 -16 -249 -38 -249 -106
c0 -47 36 -78 96 -78c78 0 153 36 153 153v31z" />
    <glyph glyph-name="b" unicode="b" horiz-adv-x="566" 
d="M70 668h84v-250c30 52 83 86 161 86c113 0 213 -95 213 -258c0 -164 -100 -258 -213 -258c-78 0 -131 34 -161 87l-22 -75h-62v668zM293 432c-85 0 -141 -68 -141 -186s56 -186 141 -186s141 68 141 186s-56 186 -141 186z" />
    <glyph glyph-name="c" unicode="c" horiz-adv-x="500" 
d="M269 -12c-142 0 -231 108 -231 258c0 148 93 258 240 258c89 0 155 -51 187 -112l-77 -28c-22 40 -65 66 -116 66c-75 0 -143 -58 -143 -183s69 -185 143 -185c54 0 96 28 118 65l77 -28c-37 -64 -110 -111 -198 -111z" />
    <glyph glyph-name="d" unicode="d" horiz-adv-x="564" 
d="M251 -12c-113 0 -213 94 -213 258c0 163 100 258 213 258c78 0 131 -34 161 -86v250h84v-481c0 -33 0 -100 17 -187h-79l-22 75c-30 -53 -83 -87 -161 -87zM273 432c-85 0 -141 -68 -141 -186s56 -186 141 -186s141 68 141 186s-56 186 -141 186z" />
    <glyph glyph-name="e" unicode="e" 
d="M281 -12c-156 0 -243 113 -243 259c0 157 105 257 241 257c158 0 241 -137 231 -279h-382c4 -125 92 -163 153 -163c56 0 93 19 116 49l81 -24c-36 -58 -104 -99 -197 -99zM279 432c-75 0 -142 -40 -150 -140h292c-1 70 -54 140 -142 140z" />
    <glyph glyph-name="f" unicode="f" horiz-adv-x="311" 
d="M15 429v67h84v74c0 102 22 136 133 136h54v-71h-52c-43 0 -51 -13 -51 -64v-75h103v-67h-103v-429h-84v429h-84z" />
    <glyph glyph-name="g" unicode="g" horiz-adv-x="560" 
d="M248 9c-110 0 -210 88 -210 247s100 248 210 248c79 0 127 -34 158 -86l23 78h61v-449c0 -98 -6 -181 -121 -223c-28 -10 -61 -16 -95 -16c-81 0 -167 33 -193 116l84 23c18 -52 68 -65 109 -65c25 0 47 5 56 8c61 21 76 57 76 138v66c-31 -52 -79 -85 -158 -85zM269 432
c-82 0 -140 -63 -140 -176s58 -177 140 -177c75 0 140 51 140 177s-65 176 -140 176z" />
    <glyph glyph-name="h" unicode="h" horiz-adv-x="546" 
d="M70 668h84v-247c28 47 76 83 160 83c120 0 164 -77 164 -190v-314h-84v289c0 76 -13 143 -109 143c-81 0 -131 -57 -131 -163v-269h-84v668z" />
    <glyph glyph-name="i" unicode="i" horiz-adv-x="278" 
d="M45 496h153v-496h-84v429h-69v67zM156 590c-34 0 -62 28 -62 63c0 34 28 62 62 62c35 0 63 -28 63 -62c0 -35 -28 -63 -63 -63z" />
    <glyph glyph-name="j" unicode="j" horiz-adv-x="254" 
d="M-58 -86c18 -1 33 -1 47 -1c84 0 101 15 101 99v484h84v-489c0 -128 -40 -168 -177 -168c-17 0 -35 1 -55 2v73zM132 590c-35 0 -63 28 -63 63c0 34 28 62 63 62c34 0 62 -28 62 -62c0 -35 -28 -63 -62 -63z" />
    <glyph glyph-name="k" unicode="k" horiz-adv-x="490" 
d="M70 668h84v-395l200 223h101l-187 -205l212 -291h-103l-165 229l-58 -63v-166h-84v668z" />
    <glyph glyph-name="l" unicode="l" horiz-adv-x="239" 
d="M70 124v543h84v-529c0 -51 4 -64 51 -64h19v-74h-37c-95 0 -117 21 -117 124z" />
    <glyph glyph-name="m" unicode="m" horiz-adv-x="841" 
d="M70 496h62l22 -75c28 47 75 83 149 83c76 0 121 -33 143 -87c40 61 98 87 167 87c115 0 160 -77 160 -190v-314h-84v289c0 76 -14 143 -106 143c-72 0 -119 -57 -119 -163v-269h-84v289c0 76 -15 143 -106 143c-72 0 -120 -57 -120 -163v-269h-84v496z" />
    <glyph glyph-name="n" unicode="n" horiz-adv-x="546" 
d="M70 496h62l22 -75c28 47 76 83 160 83c120 0 164 -77 164 -190v-314h-84v289c0 76 -13 143 -109 143c-81 0 -131 -57 -131 -163v-269h-84v496z" />
    <glyph glyph-name="o" unicode="o" horiz-adv-x="552" 
d="M38 246c0 179 124 258 238 258c115 0 238 -79 238 -258s-123 -258 -238 -258c-114 0 -238 79 -238 258zM128 246c0 -128 77 -184 148 -184c72 0 148 56 148 184s-76 184 -148 184c-71 0 -148 -56 -148 -184z" />
    <glyph glyph-name="p" unicode="p" horiz-adv-x="566" 
d="M70 496h61l23 -78c30 52 83 86 161 86c113 0 213 -94 213 -258c0 -163 -100 -258 -213 -258c-78 0 -131 34 -161 87v-236h-84v657zM152 246c0 -118 56 -186 141 -186s141 68 141 186s-56 186 -141 186s-141 -68 -141 -186z" />
    <glyph glyph-name="q" unicode="q" horiz-adv-x="576" 
d="M250 -12c-113 0 -212 95 -212 258c0 164 99 258 212 258c79 0 132 -34 162 -86l23 78h61v-520c0 -36 20 -70 71 -70c16 0 37 4 61 13v-78c-26 -8 -56 -14 -85 -14c-68 0 -131 32 -131 146v102c-30 -53 -83 -87 -162 -87zM273 432c-86 0 -142 -68 -142 -186
s56 -186 142 -186c85 0 141 68 141 186s-56 186 -141 186z" />
    <glyph glyph-name="r" unicode="r" horiz-adv-x="340" 
d="M70 496h61l27 -92c35 60 94 100 177 100v-87c-136 0 -181 -72 -181 -204v-213h-84v496z" />
    <glyph glyph-name="s" unicode="s" horiz-adv-x="471" 
d="M31 112l81 30c15 -59 72 -83 127 -83c59 0 117 29 117 74c0 136 -315 36 -315 234c0 89 95 138 191 138c78 0 156 -32 186 -101l-79 -29c-17 40 -66 59 -113 59c-51 0 -100 -23 -100 -66c0 -120 315 -21 315 -232c0 -94 -99 -148 -202 -148c-86 0 -175 39 -208 124z" />
    <glyph glyph-name="t" unicode="t" horiz-adv-x="324" 
d="M20 496h84v125h84v-125h96v-67h-96v-291c0 -51 3 -64 51 -64h45v-74h-63c-95 0 -117 21 -117 124v305h-84v67z" />
    <glyph glyph-name="u" unicode="u" horiz-adv-x="536" 
d="M227 -12c-116 0 -159 79 -159 192v317h84v-292c0 -77 13 -143 104 -143c79 0 126 56 126 162v273h84v-497h-63l-21 72c-28 -48 -73 -84 -155 -84z" />
    <glyph glyph-name="v" unicode="v" horiz-adv-x="441" 
d="M177 0l-177 496h91l130 -386l129 386h91l-177 -496h-87z" />
    <glyph glyph-name="w" unicode="w" horiz-adv-x="654" 
d="M143 0l-143 496h90l95 -367l99 367h87l98 -367l95 367h90l-142 -496h-77l-108 399l-108 -399h-76z" />
    <glyph glyph-name="x" unicode="x" horiz-adv-x="461" 
d="M0 0l181 255l-172 241h99l122 -172l123 172h99l-172 -241l181 -255h-99l-132 185l-131 -185h-99z" />
    <glyph glyph-name="y" unicode="y" horiz-adv-x="429" 
d="M179 -1l-179 496h93l122 -382l122 382h92l-176 -517c-36 -107 -62 -139 -173 -139h-43v74h34c72 0 85 10 108 86z" />
    <glyph glyph-name="z" unicode="z" horiz-adv-x="460" 
d="M40 0v74l285 348h-276v74h371v-74l-285 -348h295v-74h-390z" />
    <glyph glyph-name="uni00A0" unicode="&#xa0;" horiz-adv-x="280" 
 />
    <glyph glyph-name="circumflex" unicode="&#x2c6;" horiz-adv-x="429" 
d="M53 575l112 101c14 13 32 19 50 19c17 0 35 -6 49 -19l112 -101h-94l-68 61l-67 -61h-94z" />
    <glyph glyph-name="caron" unicode="&#x2c7;" horiz-adv-x="429" 
d="M165 588l-112 101h94l67 -61l68 61h94l-112 -101c-14 -13 -32 -19 -49 -19c-18 0 -36 6 -50 19z" />
    <glyph glyph-name="breve" unicode="&#x2d8;" horiz-adv-x="399" 
d="M278 689h69c-14 -68 -75 -120 -147 -120c-73 0 -133 52 -147 120h69c12 -31 42 -53 78 -53c35 0 65 22 78 53z" />
    <glyph glyph-name="dotaccent" unicode="&#x2d9;" horiz-adv-x="214" 
d="M53 644c0 30 24 54 54 54s54 -24 54 -54s-24 -54 -54 -54s-54 24 -54 54z" />
    <glyph glyph-name="ring" unicode="&#x2da;" horiz-adv-x="253" 
d="M126 559c-62 0 -111 50 -111 109s49 109 111 109c61 0 107 -50 107 -109s-46 -109 -107 -109zM72 668c0 -28 23 -51 52 -51s52 23 52 51s-23 51 -52 51s-52 -23 -52 -51z" />
    <glyph glyph-name="ogonek" unicode="&#x2db;" horiz-adv-x="263" 
d="M53 -91c0 41 31 79 80 91h77c-68 -25 -87 -50 -87 -75c0 -27 21 -40 49 -40c12 0 25 2 38 8v-54c-23 -8 -44 -12 -63 -12c-60 0 -94 39 -94 82z" />
    <glyph glyph-name="quoteleft" unicode="&#x2018;" horiz-adv-x="235" 
d="M53 482c0 8 2 17 5 25l62 161h55l-47 -122c31 -5 54 -32 54 -64c0 -36 -29 -64 -64 -64c-36 0 -65 30 -65 64z" />
    <glyph glyph-name="quoteright" unicode="&#x2019;" horiz-adv-x="235" 
d="M107 552c-31 5 -54 31 -54 63c0 36 29 65 64 65c36 0 65 -30 65 -64c0 -9 -2 -17 -5 -25l-62 -162h-55z" />
    <glyph glyph-name="quotesinglbase" unicode="&#x201a;" horiz-adv-x="235" 
d="M107 -11c-31 5 -54 31 -54 63c0 36 29 65 64 65c36 0 65 -30 65 -64c0 -9 -2 -17 -5 -25l-62 -162h-55z" />
    <glyph glyph-name="quotedblleft" unicode="&#x201c;" horiz-adv-x="398" 
d="M216 482c0 8 2 17 5 25l62 161h55l-46 -122c30 -5 53 -32 53 -64c0 -36 -29 -64 -64 -64c-36 0 -65 30 -65 64zM53 482c0 8 2 17 5 25l62 161h55l-47 -122c31 -5 54 -32 54 -64c0 -36 -29 -64 -64 -64c-36 0 -65 30 -65 64z" />
    <glyph glyph-name="quotedblright" unicode="&#x201d;" horiz-adv-x="398" 
d="M270 552c-31 5 -54 31 -54 63c0 36 29 65 65 65s64 -30 64 -64c0 -8 -2 -17 -5 -25l-61 -162h-56zM107 552c-31 5 -54 31 -54 63c0 36 29 65 64 65c36 0 65 -30 65 -64c0 -9 -2 -17 -5 -25l-62 -162h-55z" />
    <glyph glyph-name="quotedblbase" unicode="&#x201e;" horiz-adv-x="398" 
d="M270 -11c-31 5 -54 31 -54 63c0 36 29 65 65 65s64 -30 64 -64c0 -8 -2 -17 -5 -25l-61 -162h-56zM107 -11c-31 5 -54 31 -54 63c0 36 29 65 64 65c36 0 65 -30 65 -64c0 -9 -2 -17 -5 -25l-62 -162h-55z" />
    <glyph glyph-name="dagger" unicode="&#x2020;" horiz-adv-x="541" 
d="M40 496h190v172h81v-172h190v-80h-190v-416h-81v416h-190v80z" />
    <glyph glyph-name="daggerdbl" unicode="&#x2021;" horiz-adv-x="541" 
d="M40 251h190v165h-190v80h190v172h81v-172h190v-80h-190v-165h190v-79h-190v-172h-81v172h-190v79z" />
    <glyph glyph-name="bullet" unicode="&#x2022;" horiz-adv-x="438" 
d="M53 254c0 92 74 166 166 166s166 -74 166 -166c0 -91 -74 -166 -166 -166s-166 75 -166 166z" />
    <glyph glyph-name="ellipsis" unicode="&#x2026;" horiz-adv-x="696" 
d="M284 52c0 36 28 65 64 65s65 -29 65 -65c0 -35 -29 -64 -65 -64s-64 29 -64 64zM514 52c0 36 29 65 65 65c35 0 64 -29 64 -65c0 -35 -29 -64 -64 -64c-36 0 -65 29 -65 64zM117 -12c-35 0 -64 29 -64 64c0 36 29 65 64 65c36 0 65 -29 65 -65c0 -35 -29 -64 -65 -64z
" />
    <glyph glyph-name="perthousand" unicode="&#x2030;" horiz-adv-x="1328" 
d="M220 316c-101 0 -182 82 -182 182s81 182 182 182c100 0 181 -82 181 -182s-81 -182 -181 -182zM526 169c0 101 81 182 182 182c100 0 181 -81 181 -182c0 -100 -81 -181 -181 -181c-101 0 -182 81 -182 181zM927 169c0 101 81 182 182 182c100 0 181 -81 181 -182
c0 -100 -81 -181 -181 -181c-101 0 -182 81 -182 181zM274 0h-88l468 668h88zM1109 277c-60 0 -108 -48 -108 -108c0 -59 48 -107 108 -107c59 0 107 48 107 107c0 60 -48 108 -107 108zM708 277c-60 0 -108 -48 -108 -108c0 -59 48 -107 108 -107c59 0 107 48 107 107
c0 60 -48 108 -107 108zM220 605c-59 0 -108 -48 -108 -107s49 -107 108 -107s107 48 107 107s-48 107 -107 107z" />
    <glyph glyph-name="guilsinglleft" unicode="&#x2039;" horiz-adv-x="353" 
d="M201 40l-148 210l148 211h99l-149 -211l149 -210h-99z" />
    <glyph glyph-name="guilsinglright" unicode="&#x203a;" horiz-adv-x="353" 
d="M53 40l149 210l-149 211h100l147 -211l-147 -210h-100z" />
    <glyph glyph-name="fraction" unicode="&#x2044;" horiz-adv-x="586" 
d="M15 0l468 668h88l-468 -668h-88z" />
    <glyph glyph-name="ordfeminine" unicode="&#xaa;" horiz-adv-x="371" 
d="M152 397c-61 0 -99 33 -99 81c0 74 88 92 186 100c0 32 -2 65 -53 65c-29 0 -51 -11 -57 -36l-61 18c15 40 58 67 121 67s118 -27 118 -119v-82c0 -31 5 -58 11 -88h-58l-12 39c-17 -33 -60 -45 -96 -45zM123 483c0 -23 19 -35 49 -35c47 0 67 31 67 71v11
c-89 -10 -116 -20 -116 -47z" />
    <glyph glyph-name="guillemotleft" unicode="&#xab;" horiz-adv-x="562" 
d="M262 251l147 210h100l-150 -210l150 -211h-100zM201 40l-148 211l148 210h99l-149 -210l149 -211h-99z" />
    <glyph glyph-name="logicalnot" unicode="&#xac;" horiz-adv-x="602" 
d="M53 317v79h496v-306h-81v227h-415z" />
    <glyph glyph-name="registered" unicode="&#xae;" horiz-adv-x="798" 
d="M399 -12c-191 0 -346 155 -346 345c0 192 155 347 346 347s346 -155 346 -347c0 -190 -155 -345 -346 -345zM115 333c0 -156 127 -284 284 -284s284 128 284 284c0 157 -127 286 -284 286s-284 -129 -284 -286zM340 162h-76v368h112c109 0 174 -19 174 -116
c0 -31 -12 -82 -88 -103l108 -149h-86l-102 139h-42v-139zM388 469h-48v-110h53c57 0 81 19 81 54c0 45 -35 56 -86 56z" />
    <glyph glyph-name="macron" unicode="&#xaf;" horiz-adv-x="382" 
d="M53 601v67h276v-67h-276z" />
    <glyph glyph-name="degree" unicode="&#xb0;" horiz-adv-x="352" 
d="M40 544c0 75 61 136 136 136s136 -61 136 -136s-61 -136 -136 -136s-136 61 -136 136zM103 544c0 -40 33 -73 73 -73c41 0 73 33 73 73c0 41 -32 73 -73 73c-40 0 -73 -32 -73 -73z" />
    <glyph glyph-name="plusminus" unicode="&#xb1;" horiz-adv-x="579" 
d="M53 349h197v147h79v-147h197v-79h-197v-146h-79v146h-197v79zM526 0h-473v79h473v-79z" />
    <glyph glyph-name="twosuperior" unicode="&#xb2;" horiz-adv-x="382" 
d="M329 403h-276v55c123 97 197 162 197 224c0 35 -23 54 -57 54c-30 0 -59 -16 -64 -59l-64 18c14 56 62 91 131 91c70 0 124 -36 124 -100c0 -74 -69 -145 -186 -225h195v-58z" />
    <glyph glyph-name="threesuperior" unicode="&#xb3;" horiz-adv-x="383" 
d="M53 486l62 18c10 -31 32 -56 73 -56s73 23 73 61c0 69 -77 63 -110 63v54c27 0 101 -5 101 57c0 37 -30 53 -62 53c-38 0 -61 -19 -71 -53l-61 18c17 53 66 85 136 85c62 0 127 -30 127 -101c0 -36 -23 -67 -53 -83c41 -16 62 -53 62 -91c0 -77 -67 -114 -143 -114
c-71 0 -117 38 -134 89z" />
    <glyph glyph-name="acute" unicode="&#xb4;" horiz-adv-x="268" 
d="M123 571h-70c8 10 78 104 96 123c7 9 18 13 28 13c9 0 19 -3 26 -10c8 -7 12 -17 12 -28c0 -9 -3 -18 -13 -28c-15 -17 -73 -65 -79 -70z" />
    <glyph glyph-name="uni03BC" unicode="&#x3bc;" horiz-adv-x="538" 
d="M70 497h84v-306c0 -71 18 -129 104 -129c79 0 126 56 126 162v273h84v-497h-63l-21 72c-28 -48 -56 -84 -130 -84c-42 0 -75 20 -100 53v-203h-84v659z" />
    <glyph glyph-name="paragraph" unicode="&#xb6;" horiz-adv-x="508" 
d="M38 479c0 104 85 189 189 189h256v-67h-40v-762h-81v762h-94v-762h-81v455c-85 18 -149 94 -149 185z" />
    <glyph glyph-name="periodcentered" unicode="&#xb7;" horiz-adv-x="235" 
d="M53 248c0 35 29 64 64 64c36 0 65 -29 65 -64c0 -36 -29 -65 -65 -65c-35 0 -64 29 -64 65z" />
    <glyph glyph-name="cedilla" unicode="&#xb8;" horiz-adv-x="291" 
d="M73 -161l14 35c23 -10 42 -14 58 -14c34 0 51 18 51 34c0 13 -11 25 -36 25c-9 0 -19 -2 -31 -5c-18 -5 -28 7 -28 19c0 4 1 7 3 10l51 82l34 -21l-30 -49c11 2 21 4 30 4c46 0 69 -29 69 -61c0 -38 -32 -79 -97 -79c-25 0 -54 6 -88 20z" />
    <glyph glyph-name="onesuperior" unicode="&#xb9;" horiz-adv-x="256" 
d="M53 730c44 0 81 12 94 49h56v-376h-67v280h-83v47z" />
    <glyph glyph-name="ordmasculine" unicode="&#xba;" horiz-adv-x="381" 
d="M57 545c0 100 66 147 137 147s138 -47 138 -147s-67 -147 -138 -147s-137 47 -137 147zM126 545c0 -60 29 -93 68 -93c40 0 69 33 69 93s-29 93 -69 93c-39 0 -68 -33 -68 -93z" />
    <glyph glyph-name="guillemotright" unicode="&#xbb;" horiz-adv-x="562" 
d="M202 251l-149 210h100l147 -210l-147 -211h-100zM411 251l-149 210h99l148 -210l-148 -211h-99z" />
    <glyph glyph-name="onequarter" unicode="&#xbc;" horiz-adv-x="826" 
d="M455 140l186 236h67v-233h65v-57h-65v-86h-68v86h-185v54zM115 0l468 668h88l-467 -668h-89zM53 619c44 0 81 11 94 49h57v-376h-68v279h-83v48zM528 143h112v146z" />
    <glyph glyph-name="onehalf" unicode="&#xbd;" horiz-adv-x="812" 
d="M203 0h-88l468 668h88zM484 0v54c122 98 197 162 197 224c0 35 -23 54 -57 54c-30 0 -59 -16 -65 -59l-64 19c15 55 63 90 132 90c70 0 124 -36 124 -99c0 -75 -69 -146 -186 -225h194v-58h-275zM136 571h-83v48c44 0 81 11 94 49h56v-376h-67v279z" />
    <glyph glyph-name="threequarters" unicode="&#xbe;" horiz-adv-x="868" 
d="M682 86h-185v54l186 236h68v-233h64v-57h-64v-86h-69v86zM245 0h-88l469 668h88zM187 291c-71 0 -117 38 -134 89l62 18c10 -32 32 -56 73 -56s73 23 73 61c0 69 -77 63 -110 63v53c27 0 101 -5 101 57c0 36 -30 53 -62 53c-38 0 -61 -20 -71 -53l-61 18
c17 53 66 86 136 86c62 0 127 -31 127 -102c0 -37 -23 -67 -53 -83c41 -15 62 -52 62 -90c0 -77 -67 -114 -143 -114zM682 289l-112 -146h112v146z" />
    <glyph glyph-name="less" unicode="&#x3c;" horiz-adv-x="553" 
d="M40 283l473 213v-90l-368 -158l368 -158v-90l-473 213v70z" />
    <glyph glyph-name="equal" unicode="=" horiz-adv-x="602" 
d="M53 307v79h496v-79h-496zM549 121h-496v79h496v-79z" />
    <glyph glyph-name="greater" unicode="&#x3e;" horiz-adv-x="553" 
d="M408 248l-368 158v90l473 -213v-70l-473 -213v90z" />
    <glyph glyph-name="question" unicode="?" horiz-adv-x="520" 
d="M40 524c20 96 107 156 221 156c104 0 209 -51 209 -164c0 -86 -62 -147 -125 -188c-57 -37 -77 -53 -77 -104v-34h-86v37c0 77 38 111 114 160c48 30 86 67 86 121c0 64 -52 102 -125 102c-90 0 -126 -57 -135 -109zM162 52c0 36 29 65 65 65s64 -30 64 -65
c0 -25 -15 -48 -39 -59c-8 -3 -16 -5 -25 -5c-33 0 -65 26 -65 64z" />
    <glyph glyph-name="at" unicode="@" horiz-adv-x="780" 
d="M398 -12c-177 0 -348 139 -348 347c0 190 155 345 346 345c151 0 334 -113 334 -314c0 -155 -82 -211 -155 -211c-46 0 -89 23 -102 58c-32 -39 -75 -58 -116 -58c-71 0 -139 56 -139 163c0 152 95 201 195 201c40 0 82 -8 119 -20v-226c0 -29 19 -44 43 -44
c70 0 93 80 93 137c0 136 -121 252 -272 252c-156 0 -284 -126 -284 -283c0 -170 138 -286 284 -286c46 0 93 12 136 36v-69c-43 -19 -89 -28 -134 -28zM406 445c-50 0 -104 -22 -104 -132c0 -57 32 -84 67 -84c39 0 82 37 82 109v103c-14 2 -29 4 -45 4z" />
    <glyph glyph-name="colon" unicode=":" horiz-adv-x="205" 
d="M38 52c0 36 29 65 64 65c36 0 65 -29 65 -65c0 -35 -29 -64 -65 -64c-35 0 -64 29 -64 64zM102 375c-35 0 -64 29 -64 65c0 35 29 64 64 64c36 0 65 -29 65 -64c0 -36 -29 -65 -65 -65z" />
    <glyph glyph-name="semicolon" unicode=";" horiz-adv-x="205" 
d="M38 53c0 35 29 64 64 64c36 0 65 -30 65 -64c0 -8 -2 -17 -5 -25l-62 -161h-55l47 122c-31 5 -54 32 -54 64zM102 375c-35 0 -64 29 -64 65c0 35 29 64 64 64c36 0 65 -29 65 -64c0 -36 -29 -65 -65 -65z" />
    <glyph glyph-name="bracketleft" unicode="[" horiz-adv-x="315" 
d="M76 668h206v-74h-125v-681h125v-74h-206v829z" />
    <glyph glyph-name="backslash" unicode="\" horiz-adv-x="377" 
d="M275 0l-260 668h87l260 -668h-87z" />
    <glyph glyph-name="bracketright" unicode="]" horiz-adv-x="315" 
d="M158 594h-125v74h206v-829h-206v74h125v681z" />
    <glyph glyph-name="asciicircum" unicode="^" horiz-adv-x="552" 
d="M53 311l185 357h76l185 -357h-89l-134 258l-134 -258h-89z" />
    <glyph glyph-name="underscore" unicode="_" horiz-adv-x="396" 
d="M10 -79v79h376v-79h-376z" />
    <glyph glyph-name="grave" unicode="`" horiz-adv-x="268" 
d="M70 636c-14 15 -17 24 -17 33c0 21 17 38 38 38c11 0 22 -3 31 -15l93 -121h-70c-26 21 -57 46 -75 65z" />
    <glyph glyph-name="exclam" unicode="!" horiz-adv-x="281" 
d="M96 668h89v-172l-18 -301h-53l-18 301v172zM140 -12c-35 0 -64 29 -64 64c0 36 29 65 64 65c36 0 65 -29 65 -65c0 -35 -29 -64 -65 -64z" />
    <glyph glyph-name="quotedbl" unicode="&#x22;" horiz-adv-x="301" 
d="M195 447l-14 221h80l-14 -221h-52zM40 668h80l-14 -221h-52z" />
    <glyph glyph-name="numbersign" unicode="#" horiz-adv-x="655" 
d="M162 172h-124l11 81h124l23 162h-124l11 81h124l24 172h82l-24 -172h123l24 172h82l-24 -172h123l-11 -81h-124l-22 -162h123l-11 -81h-124l-24 -172h-82l24 172h-123l-24 -172h-82zM255 253h123l22 162h-123z" />
    <glyph glyph-name="dollar" unicode="$" horiz-adv-x="594" 
d="M267 -11c-115 10 -194 68 -227 157l87 26c23 -60 70 -94 140 -103v239l-36 7c-92 18 -184 71 -184 183c0 118 117 174 220 181v63h50v-63c89 -7 168 -45 206 -124l-86 -25c-26 43 -73 63 -120 69v-213l12 -3c102 -26 225 -60 225 -195c0 -125 -111 -194 -237 -200v-75
h-50v76zM317 68c89 5 140 50 140 112c0 69 -58 98 -140 117v-229zM143 503c0 -59 47 -90 109 -102l15 -3v202c-52 -5 -124 -30 -124 -97z" />
    <glyph glyph-name="percent" unicode="%" horiz-adv-x="927" 
d="M708 -12c-101 0 -182 81 -182 182c0 100 81 182 182 182c100 0 181 -82 181 -182c0 -101 -81 -182 -181 -182zM220 317c-101 0 -182 81 -182 181c0 101 81 182 182 182c100 0 181 -81 181 -182c0 -100 -81 -181 -181 -181zM274 0h-88l468 668h88zM112 498
c0 -59 49 -107 108 -107s107 48 107 107c0 60 -48 108 -107 108c-60 0 -108 -48 -108 -108zM600 170c0 -59 48 -108 108 -108c59 0 107 49 107 108s-48 107 -107 107c-60 0 -108 -48 -108 -107z" />
    <glyph glyph-name="ampersand" unicode="&#x26;" horiz-adv-x="705" 
d="M38 183c0 102 68 169 171 204c-45 51 -74 99 -74 151c0 87 76 142 182 142c82 0 174 -36 174 -144c0 -84 -58 -139 -140 -173l136 -144c17 41 30 88 34 142h87c-6 -72 -26 -144 -62 -204l149 -157h-119l-82 87c-58 -61 -135 -99 -231 -99c-139 0 -225 85 -225 195z
M128 187c0 -77 64 -125 135 -125c70 0 131 29 177 81l-181 191c-80 -28 -131 -73 -131 -147zM225 540c0 -55 64 -112 75 -125c65 24 109 63 109 116c0 54 -41 75 -90 75s-94 -21 -94 -66z" />
    <glyph glyph-name="quotesingle" unicode="'" horiz-adv-x="160" 
d="M54 447l-14 221h80l-14 -221h-52z" />
    <glyph glyph-name="parenleft" unicode="(" horiz-adv-x="300" 
d="M189 -161c-92 130 -139 286 -139 441c0 136 36 271 110 388h75c-66 -94 -111 -236 -111 -390c0 -146 40 -302 141 -439h-76z" />
    <glyph glyph-name="parenright" unicode=")" horiz-adv-x="300" 
d="M35 -161c101 137 142 294 142 440c0 153 -45 295 -111 389h75c74 -117 109 -252 109 -387c0 -156 -47 -312 -138 -442h-77z" />
    <glyph glyph-name="asterisk" unicode="*" horiz-adv-x="433" 
d="M107 422l62 86l-101 32l18 55l101 -33v106h57v-106l101 33l18 -55l-102 -32l63 -86l-46 -34l-63 86l-62 -86z" />
    <glyph glyph-name="plus" unicode="+" horiz-adv-x="602" 
d="M53 288h208v208h80v-208h208v-80h-208v-208h-80v208h-208v80z" />
    <glyph glyph-name="comma" unicode="," horiz-adv-x="205" 
d="M92 -11c-31 5 -54 32 -54 64c0 35 29 64 64 64c36 0 65 -30 65 -64c0 -8 -2 -17 -5 -25l-62 -161h-55z" />
    <glyph glyph-name="hyphen" unicode="-" horiz-adv-x="368" 
d="M38 208v81h292v-81h-292z" />
    <glyph glyph-name="period" unicode="." horiz-adv-x="205" 
d="M38 52c0 36 29 65 64 65c36 0 65 -29 65 -65c0 -35 -29 -64 -65 -64c-35 0 -64 29 -64 64z" />
    <glyph glyph-name="slash" unicode="/" horiz-adv-x="377" 
d="M15 0l260 668h87l-260 -668h-87z" />
    <glyph glyph-name="braceleft" unicode="{" horiz-adv-x="319" 
d="M108 125c0 57 -8 95 -70 95v67c62 0 70 38 70 95v150c0 103 22 136 134 136h43v-71h-42c-44 0 -51 -13 -51 -64v-153c0 -84 -31 -114 -79 -127c48 -13 79 -41 79 -126v-153c0 -52 7 -64 51 -64h42v-71h-43c-112 0 -134 33 -134 136v150z" />
    <glyph glyph-name="bar" unicode="|" horiz-adv-x="233" 
d="M76 -161v829h81v-829h-81z" />
    <glyph glyph-name="braceright" unicode="}" horiz-adv-x="319" 
d="M77 -161h-43v71h41c45 0 52 12 52 64v153c0 85 31 113 78 126c-47 13 -78 43 -78 127v153c0 51 -7 64 -52 64h-41v71h43c112 0 134 -33 134 -136v-150c0 -57 8 -95 70 -95v-67c-62 0 -70 -38 -70 -95v-150c0 -103 -22 -136 -134 -136z" />
    <glyph glyph-name="asciitilde" unicode="~" horiz-adv-x="555" 
d="M115 199l-75 22c15 61 65 102 137 102c83 0 148 -55 201 -55c31 0 56 17 63 51l74 -22c-15 -61 -65 -102 -136 -102c-72 0 -140 54 -200 54c-33 0 -58 -17 -64 -50z" />
    <glyph glyph-name="exclamdown" unicode="&#xa1;" horiz-adv-x="281" 
d="M185 -161h-89v172l18 300h53l18 -300v-172zM140 390c-35 0 -64 29 -64 64c0 36 29 65 64 65c36 0 65 -29 65 -65c0 -35 -29 -64 -65 -64z" />
    <glyph glyph-name="cent" unicode="&#xa2;" horiz-adv-x="500" 
d="M38 247c0 133 76 235 198 254v70h50v-67c86 -3 148 -53 179 -111l-77 -28c-20 36 -57 60 -102 65v-368c48 5 84 31 104 65l77 -28c-34 -60 -100 -105 -181 -111v-75h-50v77c-123 16 -198 118 -198 257zM129 248c0 -105 48 -164 107 -181v358c-59 -16 -107 -73 -107 -177z
" />
    <glyph glyph-name="sterling" unicode="&#xa3;" horiz-adv-x="586" 
d="M70 369h86c-22 45 -44 90 -44 142c0 123 115 169 221 169c112 0 187 -54 213 -139l-83 -25c-18 69 -72 93 -134 93c-57 0 -128 -24 -128 -101c0 -48 25 -93 48 -139h204v-51h-181c13 -29 18 -56 18 -80c0 -67 -42 -116 -96 -148c23 9 42 12 60 12c59 0 99 -36 168 -36
c30 0 65 6 109 25l25 -73c-50 -22 -90 -30 -125 -30c-75 0 -123 38 -196 38c-36 0 -79 -10 -134 -38l-28 67c37 15 129 70 129 171c0 27 -7 58 -23 92h-109v51z" />
    <glyph glyph-name="currency" unicode="&#xa4;" horiz-adv-x="580" 
d="M119 456l-66 66l36 36l66 -66c40 32 87 47 135 47s96 -15 135 -47l66 66l36 -36l-66 -66c32 -39 47 -87 47 -135s-15 -96 -47 -136l66 -66l-36 -35l-66 65c-39 -31 -87 -46 -135 -46s-95 15 -135 46l-66 -65l-36 35l66 66c-31 40 -47 88 -47 136s16 96 47 135zM290 463
c-79 0 -142 -64 -142 -142c0 -79 63 -143 142 -143s142 64 142 143c0 78 -63 142 -142 142z" />
    <glyph glyph-name="yen" unicode="&#xa5;" horiz-adv-x="595" 
d="M10 668h103l185 -323l184 323h103l-232 -394h141v-51h-149v-86h149v-51h-149v-86h-94v86h-150v51h150v86h-150v51h141z" />
    <glyph glyph-name="brokenbar" unicode="&#xa6;" horiz-adv-x="233" 
d="M76 358v310h81v-310h-81zM157 -161h-81v310h81v-310z" />
    <glyph glyph-name="section" unicode="&#xa7;" horiz-adv-x="530" 
d="M363 -36c0 130 -332 137 -332 325c0 66 55 113 120 135c-39 26 -75 66 -75 126c0 87 91 130 181 130c91 0 155 -41 182 -106l-81 -24c-16 42 -57 60 -105 60c-49 0 -91 -18 -91 -58c0 -5 1 -10 2 -16c23 -93 336 -133 336 -294c0 -72 -52 -124 -115 -151
c39 -30 64 -63 64 -114c0 -99 -86 -150 -188 -150c-99 0 -170 48 -194 129l83 24c13 -52 47 -83 113 -83c58 0 100 23 100 67zM115 294c0 -76 88 -92 208 -165c45 19 93 51 93 97c0 78 -109 108 -198 161c-48 -14 -103 -46 -103 -93z" />
    <glyph glyph-name="dieresis" unicode="&#xa8;" horiz-adv-x="425" 
d="M53 644c0 29 24 53 54 53s54 -24 54 -53c0 -30 -24 -54 -54 -54s-54 24 -54 54zM265 644c0 29 24 53 53 53c30 0 54 -24 54 -53c0 -30 -24 -54 -54 -54c-29 0 -53 24 -53 54z" />
    <glyph glyph-name="copyright" unicode="&#xa9;" horiz-adv-x="798" 
d="M53 334c0 191 155 346 346 346s346 -155 346 -346s-155 -346 -346 -346s-346 155 -346 346zM115 334c0 -157 127 -284 284 -284s284 127 284 284s-127 284 -284 284s-284 -127 -284 -284zM401 150c-112 0 -174 73 -174 192c0 118 68 189 176 189c72 0 120 -34 145 -82
l-67 -25c-17 32 -46 49 -80 49c-57 0 -98 -42 -98 -131c0 -90 41 -133 98 -133c33 0 65 12 83 45l66 -24c-26 -45 -75 -80 -149 -80z" />
    <glyph glyph-name="questiondown" unicode="&#xbf;" horiz-adv-x="520" 
d="M258 -173c-104 0 -208 51 -208 162c0 88 62 150 124 190c58 37 78 54 78 104v34h86v-36c0 -78 -38 -112 -115 -161c-48 -30 -85 -67 -85 -127c0 -58 51 -96 122 -96c92 0 129 57 138 110l82 -24c-21 -96 -107 -156 -222 -156zM228 455c0 35 29 64 65 64
c35 0 64 -29 64 -64c0 -36 -29 -65 -64 -65c-36 0 -65 29 -65 65z" />
    <glyph glyph-name="grave.case" horiz-adv-x="203" 
d="M-4 796c-10 9 -16 21 -16 32c0 20 16 36 36 36c10 0 22 -3 31 -13l106 -107h-76c-6 4 -63 37 -81 52z" />
    <glyph glyph-name="acute.case" horiz-adv-x="153" 
d="M120 744h-76c9 9 90 94 107 108c9 8 19 12 29 12c20 0 36 -16 36 -36c0 -11 -5 -23 -16 -32c-17 -15 -74 -48 -80 -52z" />
    <glyph glyph-name="circumflex.case" horiz-adv-x="325" 
d="M1 747l112 101c14 13 32 19 50 19c17 0 35 -6 49 -19l112 -101h-94l-68 61l-67 -61h-94z" />
    <glyph glyph-name="dieresis.case" horiz-adv-x="325" 
d="M3 794c0 29 24 53 54 53s54 -24 54 -53c0 -30 -24 -54 -54 -54s-54 24 -54 54zM215 794c0 29 24 53 53 53c30 0 54 -24 54 -53c0 -30 -24 -54 -54 -54c-29 0 -53 24 -53 54z" />
    <glyph glyph-name="germandbls" unicode="&#xdf;" horiz-adv-x="597" 
d="M76 453c0 95 24 227 236 227c119 0 208 -62 208 -159c0 -67 -31 -116 -100 -145c78 -20 139 -71 139 -179c0 -157 -124 -213 -257 -209l-23 77c14 -2 27 -3 39 -3c90 0 151 44 151 133c0 101 -76 135 -190 135v76c100 0 156 38 156 105c0 59 -50 100 -124 100
c-105 0 -151 -43 -151 -158v-453h-84v453z" />
    <glyph glyph-name="AE" unicode="&#xc6;" horiz-adv-x="998" 
d="M10 0l486 668h464v-81h-360v-203h266v-81h-266v-222h360v-81h-454v145h-283l-104 -145h-109zM506 546l-227 -320h227v320z" />
    <glyph glyph-name="caron.case" horiz-adv-x="325" 
d="M113 760l-112 101h94l67 -61l68 61h94l-112 -101c-14 -13 -32 -19 -49 -19c-18 0 -36 6 -50 19z" />
    <glyph glyph-name="florin" unicode="&#x192;" horiz-adv-x="321" 
d="M25 -90c10 -2 18 -3 26 -3c42 0 58 27 58 69v453h-84v67h84v74c0 102 22 136 133 136h54v-71h-52c-43 0 -51 -13 -51 -64v-75h103v-67h-103v-456c0 -114 -55 -146 -113 -146c-19 0 -37 3 -55 8v75z" />
    <glyph glyph-name="integral" unicode="&#x222b;" horiz-adv-x="458" 
d="M53 -111c0 27 22 50 50 50c29 0 49 -24 49 -51c0 -5 0 -10 -2 -15c0 0 37 -5 37 96v495c0 185 73 217 133 217c44 0 85 -15 85 -62c0 -28 -22 -50 -50 -50c-29 0 -50 24 -50 50c0 5 1 11 3 16c0 0 -37 5 -37 -97v-494c0 -186 -73 -217 -133 -217c-44 0 -85 15 -85 62z
" />
    <glyph glyph-name="approxequal" unicode="&#x2248;" horiz-adv-x="581" 
d="M53 309c16 61 66 102 139 102c83 0 148 -55 200 -55c30 0 55 18 62 51l74 -22c-15 -61 -65 -102 -136 -102c-72 0 -140 54 -200 54c-33 0 -58 -17 -64 -50zM53 123c15 61 65 102 137 102c83 0 148 -55 201 -55c31 0 56 17 63 51l74 -22c-15 -61 -65 -102 -136 -102
c-72 0 -140 54 -200 54c-33 0 -58 -17 -64 -50z" />
    <glyph glyph-name="notequal" unicode="&#x2260;" horiz-adv-x="602" 
d="M292 307h-239v80h295l77 109h99l-76 -109h101v-80h-157l-75 -107h232v-79h-287l-85 -121h-100l85 121h-109v79h165z" />
    <glyph glyph-name="lessequal" unicode="&#x2264;" horiz-adv-x="579" 
d="M53 337l473 168v-91l-368 -112l368 -112v-90l-473 167v70zM526 0h-473v80h473v-80z" />
    <glyph glyph-name="greaterequal" unicode="&#x2265;" horiz-adv-x="579" 
d="M421 302l-368 112v91l473 -168v-70l-473 -167v90zM53 0v80h473v-80h-473z" />
    <glyph glyph-name="lozenge" unicode="&#x25ca;" horiz-adv-x="561" 
d="M281 -73l-228 388l228 388l227 -388zM281 76l140 239l-140 239l-141 -239z" />
    <glyph glyph-name="summation" unicode="&#x2211;" horiz-adv-x="587" 
d="M53 668h481v-81h-380l245 -333l-245 -334h380v-81h-481v81l246 334l-246 333v81z" />
    <glyph glyph-name="minus" unicode="&#x2212;" horiz-adv-x="602" 
d="M53 209v79h496v-79h-496z" />
    <glyph glyph-name="uni2215" unicode="&#x2215;" horiz-adv-x="598" 
d="M15 0l468 669h100l-468 -669h-100z" />
    <glyph glyph-name="uni2219" unicode="&#x2219;" horiz-adv-x="235" 
d="M53 255c0 8 2 17 5 25c11 25 34 40 60 40c8 0 16 -2 24 -5c25 -11 40 -34 40 -59c0 -8 -2 -17 -5 -25c-11 -25 -34 -40 -59 -40c-40 0 -65 32 -65 64z" />
    <glyph glyph-name="radical" unicode="&#x221a;" horiz-adv-x="582" 
d="M279 -161l-120 306h-106v80h162l103 -262l123 706h88l-151 -830h-99z" />
    <glyph glyph-name="infinity" unicode="&#x221e;" horiz-adv-x="773" 
d="M53 256c0 87 67 150 166 150c72 0 125 -42 168 -89c42 47 95 89 167 89c99 0 166 -63 166 -150c0 -89 -65 -152 -160 -152c-74 0 -128 44 -173 94c-46 -50 -100 -94 -174 -94c-95 0 -160 63 -160 152zM134 256c0 -42 35 -76 83 -76c43 0 76 20 122 76
c-36 43 -70 74 -119 74s-86 -29 -86 -74zM435 256c46 -56 78 -76 121 -76c48 0 83 34 83 76c0 45 -37 74 -86 74c-48 0 -82 -31 -118 -74z" />
    <glyph glyph-name="uni03A9" unicode="&#x3a9;" horiz-adv-x="687" 
d="M201 130c-90 50 -151 146 -151 255c0 163 131 295 293 295c163 0 294 -132 294 -295c0 -109 -61 -205 -151 -255v-49h151v-81h-236v173c94 25 163 111 163 212c0 122 -99 221 -221 221c-121 0 -220 -99 -220 -221c0 -101 69 -187 163 -212v-173h-236v81h151v49z" />
    <glyph glyph-name="estimated" unicode="&#x212e;" horiz-adv-x="622" 
d="M311 -12c-122 0 -258 91 -258 268c0 118 104 248 258 248c142 0 257 -115 258 -256h-410v-170c40 -36 93 -58 152 -58c68 0 129 30 170 77l33 -10c-47 -60 -120 -99 -203 -99zM311 472c-59 0 -112 -22 -152 -59v-134h304v134c-40 37 -94 59 -152 59z" />
    <glyph glyph-name="partialdiff" unicode="&#x2202;" horiz-adv-x="582" 
d="M53 246c0 180 123 258 238 258c41 0 100 -14 132 -54c-40 128 -148 151 -281 148v82c121 0 388 3 388 -403c0 -10 -1 -20 -1 -31c-6 -189 -123 -258 -238 -258s-238 78 -238 258zM291 430c-72 0 -149 -56 -149 -184c0 -129 77 -185 149 -185s148 56 148 185
c0 128 -76 184 -148 184z" />
    <glyph glyph-name="uni0394" unicode="&#x394;" horiz-adv-x="759" 
d="M53 0l326 680l327 -680h-653zM178 78h402l-201 420z" />
    <glyph glyph-name="product" unicode="&#x220f;" horiz-adv-x="585" 
d="M53 668h479v-829h-82v748h-316v-748h-81v829z" />
    <glyph glyph-name="pi" unicode="&#x3c0;" horiz-adv-x="591" 
d="M20 414v82h531v-82h-84v-275c0 -52 3 -65 51 -65h33v-74h-51c-95 0 -117 21 -117 124v290h-198v-414h-81v414h-84z" />
    <glyph glyph-name="hungarumlaut" unicode="&#x2dd;" horiz-adv-x="414" 
d="M123 572h-70l16 22l80 101c7 9 18 13 28 13c21 0 38 -17 38 -38c0 -9 -2 -19 -11 -27zM199 572l16 22l80 101c7 9 18 13 28 13c20 0 38 -18 38 -38c0 -9 -2 -19 -11 -27l-81 -71h-70z" />
    <glyph glyph-name="tilde" unicode="&#x2dc;" horiz-adv-x="435" 
d="M118 577h-65c12 71 53 104 106 104c56 0 82 -43 124 -43c20 0 30 8 39 23c8 14 19 19 29 19c16 0 31 -14 31 -31c0 -22 -34 -74 -97 -74c-55 0 -86 43 -125 43c-24 0 -39 -15 -42 -41z" />
    <glyph glyph-name="endash" unicode="&#x2013;" horiz-adv-x="480" 
d="M41 208v79h398v-79h-398z" />
    <glyph glyph-name="emdash" unicode="&#x2014;" horiz-adv-x="800" 
d="M41 208v79h718v-79h-718z" />
    <glyph glyph-name="trademark" unicode="&#x2122;" horiz-adv-x="848" 
d="M393 668h108l93 -284l93 284h108v-376h-67v279l-98 -279h-72l-98 279v-279h-67v376zM53 608v60h303v-60h-118v-316h-67v316h-118z" />
    <glyph glyph-name="dotlessi" unicode="&#x131;" horiz-adv-x="278" 
d="M114 0v429h-69v67h153v-496h-84z" />
    <glyph glyph-name="Euro" unicode="&#x20ac;" horiz-adv-x="664" 
d="M100 377h-85l28 51h63c29 154 133 252 281 252c104 0 192 -55 236 -152l-78 -28c-28 60 -82 101 -163 101c-88 0 -160 -60 -185 -173h249l-28 -51h-229c-1 -13 -1 -28 -1 -43s0 -29 1 -43h182l-28 -51h-146c26 -110 96 -173 188 -173c80 0 135 40 164 100l77 -28
c-45 -99 -136 -151 -246 -151c-149 0 -246 100 -274 252h-91l28 51h57c-1 14 -1 29 -1 43c0 15 0 29 1 43z" />
    <glyph glyph-name="uni2113" unicode="&#x2113;" horiz-adv-x="450" 
d="M53 138v89l66 51v229c0 109 41 173 145 173c84 0 130 -59 130 -142c0 -118 -67 -196 -190 -287v-100c0 -73 30 -90 67 -90c35 0 64 17 89 39l37 -58c-31 -28 -80 -54 -136 -54c-101 0 -142 50 -142 168v32zM204 518v-174c74 52 108 117 108 191c0 53 -21 75 -53 75
c-39 0 -55 -21 -55 -92z" />
    <glyph glyph-name="Lslash" unicode="&#x141;" horiz-adv-x="573" 
d="M20 216v71l90 53v329h94v-272l180 108v-71l-180 -108v-245h359v-81h-453v270z" />
    <glyph glyph-name="lslash" unicode="&#x142;" horiz-adv-x="237" 
d="M15 242v70l53 32v324h84v-274l70 42v-71l-70 -42v-184c0 -52 4 -65 52 -65h18v-74h-36c-96 0 -118 22 -118 124v149z" />
    <glyph glyph-name="oslash" unicode="&#xf8;" horiz-adv-x="552" 
d="M38 246c0 179 123 258 238 258c49 0 99 -14 140 -44l41 47l38 -33l-41 -49c36 -41 60 -101 60 -179c0 -179 -123 -258 -238 -258c-53 0 -108 16 -151 52l-42 -49l-38 33l44 53c-31 41 -51 97 -51 169zM178 103c28 -28 63 -41 98 -41c72 0 148 56 148 184
c0 47 -10 84 -27 113zM127 246c0 -40 8 -74 21 -100l216 252c-26 22 -58 32 -88 32c-72 0 -149 -56 -149 -184z" />
    <glyph glyph-name="Oslash" unicode="&#xd8;" horiz-adv-x="727" 
d="M50 333c0 202 121 347 313 347c80 0 148 -25 200 -70l53 63l39 -32l-56 -67c50 -61 78 -144 78 -241c0 -201 -121 -345 -314 -345c-82 0 -151 26 -203 72l-57 -66l-38 33l60 70c-48 60 -75 143 -75 236zM217 127c38 -39 90 -60 146 -60c122 0 218 95 218 266
c0 70 -16 127 -43 170zM363 599c-121 0 -217 -93 -217 -266c0 -66 14 -122 40 -164l320 374c-38 37 -88 56 -143 56z" />
    <glyph glyph-name="Thorn" unicode="&#xde;" horiz-adv-x="576" 
d="M160 0h-84v668h84v-140h127c148 0 251 -34 251 -183c0 -150 -103 -182 -251 -182h-127v-163zM296 447h-136v-203h136c81 0 145 8 145 100c0 91 -64 103 -145 103z" />
    <glyph glyph-name="ring.case" horiz-adv-x="325" 
d="M165 620c-62 0 -111 50 -111 109s49 109 111 109c61 0 107 -50 107 -109s-46 -109 -107 -109zM111 729c0 -28 23 -51 52 -51s52 23 52 51s-23 51 -52 51s-52 -23 -52 -51z" />
    <glyph glyph-name="ae" unicode="&#xe6;" horiz-adv-x="874" 
d="M209 -12c-94 0 -171 52 -171 143c0 119 147 161 335 161c0 28 13 144 -112 144c-60 0 -99 -29 -110 -77l-81 24c28 78 108 121 190 121c87 0 144 -26 173 -80c44 51 108 80 181 80c159 0 241 -138 231 -279h-382c5 -125 92 -163 154 -163c55 0 92 19 116 49l81 -24
c-37 -58 -105 -99 -197 -99s-160 39 -200 100c-34 -57 -103 -100 -208 -100zM131 133c0 -47 36 -79 96 -79c169 0 153 155 153 171c-152 0 -249 -24 -249 -92zM614 432c-75 0 -142 -40 -149 -140h292c-2 70 -55 140 -143 140z" />
    <glyph glyph-name="eth" unicode="&#xf0;" horiz-adv-x="567" 
d="M38 218c0 134 91 227 216 227c88 0 145 -40 176 -93c-6 92 -32 154 -74 195l-73 -73l-36 36l66 66c-36 19 -82 26 -138 26v77c74 0 141 -12 196 -45l46 46l36 -36l-40 -40c71 -64 104 -183 104 -301c0 -161 -54 -315 -244 -315c-143 0 -235 106 -235 230zM273 371
c-88 0 -145 -64 -145 -156s57 -156 145 -156c89 0 146 64 146 156s-57 156 -146 156z" />
    <glyph glyph-name="thorn" unicode="&#xfe;" horiz-adv-x="566" 
d="M70 669h84v-251c30 52 83 87 161 87c113 0 213 -94 213 -259c0 -163 -100 -258 -213 -258c-78 0 -131 35 -161 87v-236h-84v830zM293 433c-85 0 -141 -69 -141 -187c0 -117 56 -186 141 -186s141 68 141 186s-56 187 -141 187z" />
    <glyph glyph-name="uni02C9" unicode="&#x2c9;" horiz-adv-x="382" 
d="M53 601v67h276v-67h-276z" />
    <glyph glyph-name="macron.case" horiz-adv-x="325" 
d="M25 762v67h276v-67h-276z" />
    <glyph glyph-name="breve.case" horiz-adv-x="325" 
d="M241 861h69c-14 -68 -75 -120 -147 -120c-73 0 -133 52 -147 120h69c12 -31 42 -53 78 -53c35 0 65 22 78 53z" />
    <glyph glyph-name="dotaccent.case" horiz-adv-x="325" 
d="M109 816c0 30 24 54 54 54s54 -24 54 -54s-24 -54 -54 -54s-54 24 -54 54z" />
    <glyph glyph-name="tilde.case" horiz-adv-x="325" 
d="M63 749h-65c12 71 53 104 106 104c56 0 82 -43 124 -43c20 0 30 8 39 23c8 14 19 19 29 19c16 0 31 -14 31 -31c0 -22 -34 -74 -97 -74c-55 0 -86 43 -125 43c-24 0 -39 -15 -42 -41z" />
    <glyph glyph-name="hungarumlaut.case" horiz-adv-x="325" 
d="M79 744h-70l16 22l80 101c7 9 18 13 28 13c21 0 38 -17 38 -38c0 -9 -2 -19 -11 -27zM155 744l16 22l80 101c7 9 18 13 28 13c20 0 38 -18 38 -38c0 -9 -2 -19 -11 -27l-81 -71h-70z" />
    <glyph glyph-name="multiply" unicode="&#xd7;" horiz-adv-x="528" 
d="M53 404l57 58l154 -154l154 154l57 -58l-153 -154l153 -153l-57 -58l-154 154l-154 -154l-57 58l154 153z" />
    <glyph glyph-name="divide" unicode="&#xf7;" horiz-adv-x="602" 
d="M53 289h496v-81h-496v81zM301 354c-36 0 -65 28 -65 64s29 65 65 65s64 -29 64 -65s-28 -64 -64 -64zM301 14c-36 0 -65 29 -65 65c0 35 29 64 65 64s64 -29 64 -64c0 -36 -28 -65 -64 -65z" />
    <glyph glyph-name="OE" unicode="&#x152;" horiz-adv-x="1052" 
d="M363 -12c-192 0 -313 145 -313 347c0 203 121 345 313 345c90 0 164 -31 218 -83v72h433v-81h-359v-203h265v-81h-265v-223h359v-81h-433v75c-54 -55 -128 -87 -218 -87zM363 602c-121 0 -217 -94 -217 -267c0 -172 96 -266 217 -266c120 0 218 91 218 265
c0 187 -108 268 -218 268z" />
    <glyph glyph-name="oe" unicode="&#x153;" horiz-adv-x="927" 
d="M38 246c0 180 123 259 238 259c73 0 149 -32 195 -101c43 64 114 101 195 101c159 0 242 -138 232 -280h-382c4 -125 92 -163 153 -163c56 0 92 19 116 49l81 -24c-37 -57 -104 -99 -197 -99c-91 0 -159 39 -199 100c-46 -68 -122 -100 -194 -100
c-115 0 -238 79 -238 258zM276 431c-72 0 -149 -56 -149 -185c0 -128 77 -184 149 -184s148 56 148 184c0 129 -76 185 -148 185zM666 433c-74 0 -142 -41 -149 -141h292c-2 71 -54 141 -143 141z" />
    <glyph glyph-name="Acircumflex" unicode="&#xc2;" horiz-adv-x="626" 
d="M110 0h-100l251 669h105l250 -669h-100l-51 146h-304zM313 574l-123 -347h246zM246 747h-94l112 101c14 13 32 19 50 19c17 0 35 -6 49 -19l112 -101h-94l-68 61z" />
    <glyph glyph-name="Atilde" unicode="&#xc3;" horiz-adv-x="626" 
d="M110 0h-100l251 669h105l250 -669h-100l-51 146h-304zM313 574l-123 -347h246zM149 751c12 71 53 104 106 104c56 0 82 -43 124 -43c20 0 30 8 39 23c8 14 19 19 29 19c16 0 31 -14 31 -31c0 -22 -34 -74 -97 -74c-55 0 -86 43 -125 43c-24 0 -39 -15 -42 -41h-65z" />
    <glyph glyph-name="Adieresis" unicode="&#xc4;" horiz-adv-x="626" 
d="M10 0l251 669h105l250 -669h-100l-51 146h-304l-51 -146h-100zM190 227h246l-123 347zM208 740c-30 0 -54 24 -54 54c0 29 24 53 54 53s54 -24 54 -53c0 -30 -24 -54 -54 -54zM419 740c-29 0 -53 24 -53 54c0 29 24 53 53 53c30 0 54 -24 54 -53c0 -30 -24 -54 -54 -54z
" />
    <glyph glyph-name="Aring" unicode="&#xc5;" horiz-adv-x="626" 
d="M110 0h-100l240 641c-28 20 -46 52 -46 88c0 59 49 109 111 109c61 0 107 -50 107 -109c0 -36 -17 -69 -45 -89l239 -640h-100l-51 146h-304zM313 574l-123 -347h246zM313 780c-29 0 -52 -23 -52 -51s23 -51 52 -51s52 23 52 51s-23 51 -52 51z" />
    <glyph glyph-name="Agrave" unicode="&#xc0;" horiz-adv-x="626" 
d="M10 0l251 669h105l250 -669h-100l-51 146h-304l-51 -146h-100zM313 574l-123 -347h246zM196 796c-10 9 -16 21 -16 32c0 20 16 36 36 36c10 0 22 -3 31 -13l106 -107h-76c-6 4 -63 37 -81 52z" />
    <glyph glyph-name="Aacute" unicode="&#xc1;" horiz-adv-x="626" 
d="M10 0l251 669h105l250 -669h-100l-51 146h-304l-51 -146h-100zM313 574l-123 -347h246zM353 744h-76c9 9 90 94 107 108c9 8 19 12 29 12c20 0 36 -16 36 -36c0 -11 -5 -23 -16 -32c-17 -15 -74 -48 -80 -52z" />
    <glyph glyph-name="Amacron" unicode="&#x100;" horiz-adv-x="626" 
d="M10 0l251 669h105l250 -669h-100l-51 146h-304l-51 -146h-100zM190 227h246l-123 347zM451 762h-276v67h276v-67z" />
    <glyph glyph-name="amacron" unicode="&#x101;" horiz-adv-x="526" 
d="M38 131c0 118 132 152 335 175c3 84 -32 131 -112 131c-60 0 -99 -29 -110 -77l-81 24c27 76 101 120 190 120c137 0 196 -62 197 -201l1 -116c1 -83 8 -140 17 -187h-77l-20 68c-30 -50 -82 -80 -169 -80c-94 0 -171 52 -171 143zM131 133c0 -47 36 -78 96 -78
c78 0 153 36 153 153v31c-152 -16 -249 -38 -249 -106zM127 668h276v-67h-276v67z" />
    <glyph glyph-name="agrave" unicode="&#xe0;" horiz-adv-x="526" 
d="M38 131c0 118 132 152 335 175c3 84 -32 131 -112 131c-60 0 -99 -29 -110 -77l-81 24c27 76 101 120 190 120c137 0 196 -62 197 -201l1 -116c1 -83 8 -140 17 -187h-77l-20 68c-30 -50 -82 -80 -169 -80c-94 0 -171 52 -171 143zM380 239c-152 -16 -249 -38 -249 -106
c0 -47 36 -78 96 -78c78 0 153 36 153 153v31zM139 669c0 21 17 38 38 38c11 0 22 -3 31 -15l93 -121h-70c-26 21 -57 46 -75 65c-14 15 -17 24 -17 33z" />
    <glyph glyph-name="acircumflex" unicode="&#xe2;" horiz-adv-x="526" 
d="M209 -12c-94 0 -171 52 -171 143c0 118 132 152 335 175c3 84 -32 131 -112 131c-60 0 -99 -29 -110 -77l-81 24c27 76 101 120 190 120c137 0 196 -62 197 -201l1 -116c1 -83 8 -140 17 -187h-77l-20 68c-30 -50 -82 -80 -169 -80zM131 133c0 -47 36 -78 96 -78
c78 0 153 36 153 153v31c-152 -16 -249 -38 -249 -106zM104 575l112 101c14 13 32 19 50 19c17 0 35 -6 49 -19l112 -101h-94l-68 61l-67 -61h-94z" />
    <glyph glyph-name="atilde" unicode="&#xe3;" horiz-adv-x="526" 
d="M209 -12c-94 0 -171 52 -171 143c0 118 132 152 335 175c3 84 -32 131 -112 131c-60 0 -99 -29 -110 -77l-81 24c27 76 101 120 190 120c137 0 196 -62 197 -201l1 -116c1 -83 8 -140 17 -187h-77l-20 68c-30 -50 -82 -80 -169 -80zM131 133c0 -47 36 -78 96 -78
c78 0 153 36 153 153v31c-152 -16 -249 -38 -249 -106zM164 577h-65c12 71 53 104 106 104c56 0 82 -43 124 -43c20 0 30 8 39 23c8 14 19 19 29 19c16 0 31 -14 31 -31c0 -22 -34 -74 -97 -74c-55 0 -86 43 -125 43c-24 0 -39 -15 -42 -41z" />
    <glyph glyph-name="adieresis" unicode="&#xe4;" horiz-adv-x="526" 
d="M209 -12c-94 0 -171 52 -171 143c0 118 132 152 335 175c3 84 -32 131 -112 131c-60 0 -99 -29 -110 -77l-81 24c27 76 101 120 190 120c137 0 196 -62 197 -201l1 -116c1 -83 8 -140 17 -187h-77l-20 68c-30 -50 -82 -80 -169 -80zM131 133c0 -47 36 -78 96 -78
c78 0 153 36 153 153v31c-152 -16 -249 -38 -249 -106zM105 644c0 29 24 53 54 53s54 -24 54 -53c0 -30 -24 -54 -54 -54s-54 24 -54 54zM370 590c-29 0 -53 24 -53 54c0 29 24 53 53 53c30 0 54 -24 54 -53c0 -30 -24 -54 -54 -54z" />
    <glyph glyph-name="aring" unicode="&#xe5;" horiz-adv-x="526" 
d="M38 131c0 118 132 152 335 175c3 84 -32 131 -112 131c-60 0 -99 -29 -110 -77l-81 24c27 76 101 120 190 120c137 0 196 -62 197 -201l1 -116c1 -83 8 -140 17 -187h-77l-20 68c-30 -50 -82 -80 -169 -80c-94 0 -171 52 -171 143zM267 559c-62 0 -111 50 -111 109
s49 109 111 109c61 0 107 -50 107 -109s-46 -109 -107 -109zM131 133c0 -47 36 -78 96 -78c78 0 153 36 153 153v31c-152 -16 -249 -38 -249 -106zM213 668c0 -28 23 -51 52 -51s52 23 52 51s-23 51 -52 51s-52 -23 -52 -51z" />
    <glyph glyph-name="aacute" unicode="&#xe1;" horiz-adv-x="526" 
d="M38 131c0 118 132 152 335 175c3 84 -32 131 -112 131c-60 0 -99 -29 -110 -77l-81 24c27 76 101 120 190 120c137 0 196 -62 197 -201l1 -116c1 -83 8 -140 17 -187h-77l-20 68c-30 -50 -82 -80 -169 -80c-94 0 -171 52 -171 143zM131 133c0 -47 36 -78 96 -78
c78 0 153 36 153 153v31c-152 -16 -249 -38 -249 -106zM292 571h-70c8 10 78 104 96 123c7 9 18 13 28 13c9 0 19 -3 26 -10c8 -7 12 -17 12 -28c0 -9 -3 -18 -13 -28c-15 -17 -73 -65 -79 -70z" />
    <glyph glyph-name="Ccedilla" unicode="&#xc7;" horiz-adv-x="671" 
d="M59 335c0 208 122 345 311 345c112 0 207 -54 253 -151l-82 -30c-30 60 -89 102 -176 102c-118 0 -210 -92 -210 -266c0 -168 88 -268 213 -268c87 0 146 41 177 102l82 -30c-47 -97 -143 -149 -258 -151l-20 -33c11 2 21 4 30 4c46 0 69 -29 69 -61
c0 -38 -32 -79 -97 -79c-25 0 -54 6 -88 20l14 35c23 -10 42 -14 58 -14c34 0 51 18 51 34c0 13 -11 25 -36 25c-9 0 -19 -2 -31 -5c-18 -5 -28 7 -28 19c0 4 1 7 3 10l29 47c-167 18 -264 156 -264 345z" />
    <glyph glyph-name="ccedilla" unicode="&#xe7;" horiz-adv-x="512" 
d="M50 246c0 148 93 258 240 258c89 0 155 -51 187 -112l-77 -28c-22 40 -65 66 -116 66c-75 0 -143 -58 -143 -183s69 -185 143 -185c54 0 96 28 118 65l77 -28c-36 -63 -108 -110 -194 -111l-21 -33c11 2 21 4 30 4c46 0 69 -29 69 -61c0 -38 -32 -79 -97 -79
c-25 0 -54 6 -88 20l14 35c23 -10 42 -14 58 -14c34 0 51 18 51 34c0 13 -11 25 -36 25c-9 0 -19 -2 -31 -5c-18 -5 -28 7 -28 19c0 4 1 7 3 10l30 48c-117 19 -189 120 -189 255z" />
    <glyph glyph-name="Egrave" unicode="&#xc8;" horiz-adv-x="567" 
d="M76 668h453v-81h-359v-203h265v-81h-265v-222h359v-81h-453v668zM194 828c0 20 16 36 36 36c10 0 22 -3 31 -13l106 -107h-76c-6 4 -63 37 -81 52c-10 9 -16 21 -16 32z" />
    <glyph glyph-name="Eacute" unicode="&#xc9;" horiz-adv-x="567" 
d="M76 0v668h453v-81h-359v-203h265v-81h-265v-222h359v-81h-453zM341 744h-76c9 9 90 94 107 108c9 8 19 12 29 12c20 0 36 -16 36 -36c0 -11 -5 -23 -16 -32c-17 -15 -74 -48 -80 -52z" />
    <glyph glyph-name="Ecircumflex" unicode="&#xca;" horiz-adv-x="567" 
d="M76 0v668h453v-81h-359v-203h265v-81h-265v-222h359v-81h-453zM142 750l112 101c14 13 32 19 50 19c17 0 35 -6 49 -19l112 -101h-94l-68 61l-67 -61h-94z" />
    <glyph glyph-name="Edieresis" unicode="&#xcb;" horiz-adv-x="567" 
d="M76 0v668h453v-81h-359v-203h265v-81h-265v-222h359v-81h-453zM183 742c-30 0 -54 24 -54 54c0 29 24 53 54 53s54 -24 54 -53c0 -30 -24 -54 -54 -54zM394 742c-29 0 -53 24 -53 54c0 29 24 53 53 53c30 0 54 -24 54 -53c0 -30 -24 -54 -54 -54z" />
    <glyph glyph-name="egrave" unicode="&#xe8;" 
d="M281 -12c-156 0 -243 113 -243 259c0 157 105 257 241 257c158 0 241 -137 231 -279h-382c4 -125 92 -163 153 -163c56 0 93 19 116 49l81 -24c-36 -58 -104 -99 -197 -99zM129 292h292c-1 70 -54 140 -142 140c-75 0 -142 -40 -150 -140zM147 669c0 21 17 38 38 38
c11 0 22 -3 31 -15l93 -121h-70c-26 21 -57 46 -75 65c-14 15 -17 24 -17 33z" />
    <glyph glyph-name="eacute" unicode="&#xe9;" 
d="M281 -12c-156 0 -243 113 -243 259c0 157 105 257 241 257c158 0 241 -137 231 -279h-382c4 -125 92 -163 153 -163c56 0 93 19 116 49l81 -24c-36 -58 -104 -99 -197 -99zM129 292h292c-1 70 -54 140 -142 140c-75 0 -142 -40 -150 -140zM309 571h-70
c8 10 78 104 96 123c7 9 18 13 28 13c9 0 19 -3 26 -10c8 -7 12 -17 12 -28c0 -9 -3 -18 -13 -28c-15 -17 -73 -65 -79 -70z" />
    <glyph glyph-name="ecircumflex" unicode="&#xea;" 
d="M281 -12c-156 0 -243 113 -243 259c0 157 105 257 241 257c158 0 241 -137 231 -279h-382c4 -125 92 -163 153 -163c56 0 93 19 116 49l81 -24c-36 -58 -104 -99 -197 -99zM129 292h292c-1 70 -54 140 -142 140c-75 0 -142 -40 -150 -140zM203 575h-94l112 101
c14 13 32 19 50 19c17 0 35 -6 49 -19l112 -101h-94l-68 61z" />
    <glyph glyph-name="edieresis" unicode="&#xeb;" 
d="M281 -12c-156 0 -243 113 -243 259c0 157 105 257 241 257c158 0 241 -137 231 -279h-382c4 -125 92 -163 153 -163c56 0 93 19 116 49l81 -24c-36 -58 -104 -99 -197 -99zM279 432c-75 0 -142 -40 -150 -140h292c-1 70 -54 140 -142 140zM165 590c-30 0 -54 24 -54 54
c0 29 24 53 54 53s54 -24 54 -53c0 -30 -24 -54 -54 -54zM323 644c0 29 24 53 53 53c30 0 54 -24 54 -53c0 -30 -24 -54 -54 -54c-29 0 -53 24 -53 54z" />
    <glyph glyph-name="Igrave" unicode="&#xcc;" horiz-adv-x="414" 
d="M66 74h94v520h-94v74h282v-74h-94v-520h94v-74h-282v74zM94 796c-10 9 -16 21 -16 32c0 20 16 36 36 36c10 0 22 -3 31 -13l106 -107h-76c-6 4 -63 37 -81 52z" />
    <glyph glyph-name="Iacute" unicode="&#xcd;" horiz-adv-x="414" 
d="M348 0h-282v74h94v520h-94v74h282v-74h-94v-520h94v-74zM242 744h-76c9 9 90 94 107 108c9 8 19 12 29 12c20 0 36 -16 36 -36c0 -11 -5 -23 -16 -32c-17 -15 -74 -48 -80 -52z" />
    <glyph glyph-name="Icircumflex" unicode="&#xce;" horiz-adv-x="414" 
d="M160 594h-94v74h282v-74h-94v-520h94v-74h-282v74h94v520zM46 747l112 101c14 13 32 19 50 19c17 0 35 -6 49 -19l112 -101h-94l-68 61l-67 -61h-94z" />
    <glyph glyph-name="Idieresis" unicode="&#xcf;" horiz-adv-x="414" 
d="M348 0h-282v74h94v520h-94v74h282v-74h-94v-520h94v-74zM48 794c0 29 24 53 54 53s54 -24 54 -53c0 -30 -24 -54 -54 -54s-54 24 -54 54zM260 794c0 29 24 53 53 53c30 0 54 -24 54 -53c0 -30 -24 -54 -54 -54c-29 0 -53 24 -53 54z" />
    <glyph glyph-name="igrave" unicode="&#xec;" horiz-adv-x="278" 
d="M114 429h-69v67h153v-496h-84v429zM45 636c-14 15 -17 24 -17 33c0 21 17 38 38 38c11 0 22 -3 31 -15l93 -121h-70c-26 21 -57 46 -75 65z" />
    <glyph glyph-name="iacute" unicode="&#xed;" horiz-adv-x="278" 
d="M45 429v67h153v-496h-84v429h-69zM184 570h-70c8 10 78 104 96 123c7 9 18 13 28 13c9 0 19 -3 26 -10c8 -7 12 -17 12 -28c0 -9 -3 -18 -13 -28c-15 -17 -73 -65 -79 -70z" />
    <glyph glyph-name="icircumflex" unicode="&#xee;" horiz-adv-x="278" 
d="M45 429v67h153v-496h-84v429h-69zM81 575h-94l112 101c14 13 32 19 50 19c17 0 35 -6 49 -19l112 -101h-94l-68 61z" />
    <glyph glyph-name="idieresis" unicode="&#xef;" horiz-adv-x="278" 
d="M45 496h153v-496h-84v429h-69v67zM-21 638c0 29 24 53 54 53s54 -24 54 -53c0 -30 -24 -54 -54 -54s-54 24 -54 54zM244 584c-29 0 -53 24 -53 54c0 29 24 53 53 53c30 0 54 -24 54 -53c0 -30 -24 -54 -54 -54z" />
    <glyph glyph-name="Ntilde" unicode="&#xd1;" horiz-adv-x="689" 
d="M170 0h-94v668h139l304 -568v568h94v-668h-138l-305 571v-571zM244 751h-65c12 71 53 104 106 104c56 0 82 -43 124 -43c20 0 30 8 39 23c8 14 19 19 29 19c16 0 31 -14 31 -31c0 -22 -34 -74 -97 -74c-55 0 -86 43 -125 43c-24 0 -39 -15 -42 -41z" />
    <glyph glyph-name="Ograve" unicode="&#xd2;" horiz-adv-x="727" 
d="M50 335c0 201 121 345 313 345c193 0 314 -144 314 -345c0 -202 -121 -347 -314 -347c-192 0 -313 145 -313 347zM363 601c-121 0 -217 -94 -217 -266c0 -173 96 -268 217 -268c122 0 218 95 218 268c0 172 -96 266 -218 266zM249 796c-10 9 -16 21 -16 32
c0 20 16 36 36 36c10 0 22 -3 31 -13l106 -107h-76c-6 4 -63 37 -81 52z" />
    <glyph glyph-name="Oacute" unicode="&#xd3;" horiz-adv-x="727" 
d="M50 335c0 201 121 345 313 345c193 0 314 -144 314 -345c0 -202 -121 -347 -314 -347c-192 0 -313 145 -313 347zM146 335c0 -173 96 -268 217 -268c122 0 218 95 218 268c0 172 -96 266 -218 266c-121 0 -217 -94 -217 -266zM399 744h-76c9 9 90 94 107 108
c9 8 19 12 29 12c20 0 36 -16 36 -36c0 -11 -5 -23 -16 -32c-17 -15 -74 -48 -80 -52z" />
    <glyph glyph-name="Ocircumflex" unicode="&#xd4;" horiz-adv-x="727" 
d="M50 335c0 201 121 345 313 345c193 0 314 -144 314 -345c0 -202 -121 -347 -314 -347c-192 0 -313 145 -313 347zM146 335c0 -173 96 -268 217 -268c122 0 218 95 218 268c0 172 -96 266 -218 266c-121 0 -217 -94 -217 -266zM296 747h-94l112 101c14 13 32 19 50 19
c17 0 35 -6 49 -19l112 -101h-94l-68 61z" />
    <glyph glyph-name="Otilde" unicode="&#xd5;" horiz-adv-x="727" 
d="M363 -12c-192 0 -313 145 -313 347c0 201 121 345 313 345c193 0 314 -144 314 -345c0 -202 -121 -347 -314 -347zM146 335c0 -173 96 -268 217 -268c122 0 218 95 218 268c0 172 -96 266 -218 266c-121 0 -217 -94 -217 -266zM195 752c12 71 53 104 106 104
c56 0 82 -43 124 -43c20 0 30 8 39 23c8 14 19 19 29 19c16 0 31 -14 31 -31c0 -22 -34 -74 -97 -74c-55 0 -86 43 -125 43c-24 0 -39 -15 -42 -41h-65z" />
    <glyph glyph-name="Odieresis" unicode="&#xd6;" horiz-adv-x="727" 
d="M363 -12c-192 0 -313 145 -313 347c0 201 121 345 313 345c193 0 314 -144 314 -345c0 -202 -121 -347 -314 -347zM363 601c-121 0 -217 -94 -217 -266c0 -173 96 -268 217 -268c122 0 218 95 218 268c0 172 -96 266 -218 266zM204 796c0 29 24 53 54 53s54 -24 54 -53
c0 -30 -24 -54 -54 -54s-54 24 -54 54zM416 796c0 29 24 53 53 53c30 0 54 -24 54 -53c0 -30 -24 -54 -54 -54c-29 0 -53 24 -53 54z" />
    <glyph glyph-name="Ugrave" unicode="&#xd9;" horiz-adv-x="690" 
d="M76 668h94v-396c0 -132 47 -203 175 -203s175 71 175 203v396h94v-389c0 -195 -74 -291 -269 -291c-194 0 -269 96 -269 291v389zM231 796c-10 9 -16 21 -16 32c0 20 16 36 36 36c10 0 22 -3 31 -13l106 -107h-76c-6 4 -63 37 -81 52z" />
    <glyph glyph-name="Uacute" unicode="&#xda;" horiz-adv-x="690" 
d="M345 -12c-194 0 -269 96 -269 291v389h94v-396c0 -132 47 -203 175 -203s175 71 175 203v396h94v-389c0 -195 -74 -291 -269 -291zM381 744h-76c9 9 90 94 107 108c9 8 19 12 29 12c20 0 36 -16 36 -36c0 -11 -5 -23 -16 -32c-17 -15 -74 -48 -80 -52z" />
    <glyph glyph-name="Ucircumflex" unicode="&#xdb;" horiz-adv-x="690" 
d="M76 279v389h94v-396c0 -132 47 -203 175 -203s175 71 175 203v396h94v-389c0 -195 -74 -291 -269 -291c-194 0 -269 96 -269 291zM278 747h-94l112 101c14 13 32 19 50 19c17 0 35 -6 49 -19l112 -101h-94l-68 61z" />
    <glyph glyph-name="Udieresis" unicode="&#xdc;" horiz-adv-x="690" 
d="M345 -12c-194 0 -269 96 -269 291v389h94v-396c0 -132 47 -203 175 -203s175 71 175 203v396h94v-389c0 -195 -74 -291 -269 -291zM240 743c-30 0 -54 24 -54 54c0 29 24 53 54 53s54 -24 54 -53c0 -30 -24 -54 -54 -54zM451 743c-29 0 -53 24 -53 54c0 29 24 53 53 53
c30 0 54 -24 54 -53c0 -30 -24 -54 -54 -54z" />
    <glyph glyph-name="Yacute" unicode="&#xdd;" horiz-adv-x="595" 
d="M251 259l-241 409h103l185 -323l184 323h103l-240 -409v-259h-94v259zM258 744c9 9 90 94 107 108c9 8 19 12 29 12c20 0 36 -16 36 -36c0 -11 -5 -23 -16 -32c-17 -15 -74 -48 -80 -52h-76z" />
    <glyph glyph-name="ntilde" unicode="&#xf1;" horiz-adv-x="546" 
d="M154 0h-84v496h62l22 -75c28 47 76 83 160 83c120 0 164 -77 164 -190v-314h-84v289c0 76 -13 143 -109 143c-81 0 -131 -57 -131 -163v-269zM107 577c12 71 53 104 106 104c56 0 82 -43 124 -43c20 0 30 8 39 23c8 14 19 19 29 19c16 0 31 -14 31 -31
c0 -22 -34 -74 -97 -74c-55 0 -86 43 -125 43c-24 0 -39 -15 -42 -41h-65z" />
    <glyph glyph-name="ograve" unicode="&#xf2;" horiz-adv-x="552" 
d="M38 246c0 179 124 258 238 258c115 0 238 -79 238 -258s-123 -258 -238 -258c-114 0 -238 79 -238 258zM276 430c-71 0 -148 -56 -148 -184s77 -184 148 -184c72 0 148 56 148 184s-76 184 -148 184zM164 636c-14 15 -17 24 -17 33c0 21 17 38 38 38c11 0 22 -3 31 -15
l93 -121h-70c-26 21 -57 46 -75 65z" />
    <glyph glyph-name="oacute" unicode="&#xf3;" horiz-adv-x="552" 
d="M38 246c0 179 124 258 238 258c115 0 238 -79 238 -258s-123 -258 -238 -258c-114 0 -238 79 -238 258zM128 246c0 -128 77 -184 148 -184c72 0 148 56 148 184s-76 184 -148 184c-71 0 -148 -56 -148 -184zM311 571h-70c8 10 78 104 96 123c7 9 18 13 28 13
c9 0 19 -3 26 -10c8 -7 12 -17 12 -28c0 -9 -3 -18 -13 -28c-15 -17 -73 -65 -79 -70z" />
    <glyph glyph-name="ocircumflex" unicode="&#xf4;" horiz-adv-x="552" 
d="M38 246c0 179 124 258 238 258c115 0 238 -79 238 -258s-123 -258 -238 -258c-114 0 -238 79 -238 258zM276 430c-71 0 -148 -56 -148 -184s77 -184 148 -184c72 0 148 56 148 184s-76 184 -148 184zM115 575l112 101c14 13 32 19 50 19c17 0 35 -6 49 -19l112 -101h-94
l-68 61l-67 -61h-94z" />
    <glyph glyph-name="otilde" unicode="&#xf5;" horiz-adv-x="552" 
d="M276 -12c-114 0 -238 79 -238 258s124 258 238 258c115 0 238 -79 238 -258s-123 -258 -238 -258zM128 246c0 -128 77 -184 148 -184c72 0 148 56 148 184s-76 184 -148 184c-71 0 -148 -56 -148 -184zM172 577h-65c12 71 53 104 106 104c56 0 82 -43 124 -43
c20 0 30 8 39 23c8 14 19 19 29 19c16 0 31 -14 31 -31c0 -22 -34 -74 -97 -74c-55 0 -86 43 -125 43c-24 0 -39 -15 -42 -41z" />
    <glyph glyph-name="odieresis" unicode="&#xf6;" horiz-adv-x="552" 
d="M38 246c0 179 124 258 238 258c115 0 238 -79 238 -258s-123 -258 -238 -258c-114 0 -238 79 -238 258zM128 246c0 -128 77 -184 148 -184c72 0 148 56 148 184s-76 184 -148 184c-71 0 -148 -56 -148 -184zM117 644c0 29 24 53 54 53s54 -24 54 -53
c0 -30 -24 -54 -54 -54s-54 24 -54 54zM329 644c0 29 24 53 53 53c30 0 54 -24 54 -53c0 -30 -24 -54 -54 -54c-29 0 -53 24 -53 54z" />
    <glyph glyph-name="ugrave" unicode="&#xf9;" horiz-adv-x="536" 
d="M68 180v317h84v-292c0 -77 13 -143 104 -143c79 0 126 56 126 162v273h84v-497h-63l-21 72c-28 -48 -73 -84 -155 -84c-116 0 -159 79 -159 192zM144 669c0 21 17 38 38 38c11 0 22 -3 31 -15l93 -121h-70c-26 21 -57 46 -75 65c-14 15 -17 24 -17 33z" />
    <glyph glyph-name="uacute" unicode="&#xfa;" horiz-adv-x="536" 
d="M227 -12c-116 0 -159 79 -159 192v317h84v-292c0 -77 13 -143 104 -143c79 0 126 56 126 162v273h84v-497h-63l-21 72c-28 -48 -73 -84 -155 -84zM236 571c8 10 78 104 96 123c7 9 18 13 28 13c9 0 19 -3 26 -10c8 -7 12 -17 12 -28c0 -9 -3 -18 -13 -28
c-15 -17 -73 -65 -79 -70h-70z" />
    <glyph glyph-name="ucircumflex" unicode="&#xfb;" horiz-adv-x="536" 
d="M68 180v317h84v-292c0 -77 13 -143 104 -143c79 0 126 56 126 162v273h84v-497h-63l-21 72c-28 -48 -73 -84 -155 -84c-116 0 -159 79 -159 192zM200 575h-94l112 101c14 13 32 19 50 19c17 0 35 -6 49 -19l112 -101h-94l-68 61z" />
    <glyph glyph-name="udieresis" unicode="&#xfc;" horiz-adv-x="536" 
d="M68 180v317h84v-292c0 -77 13 -143 104 -143c79 0 126 56 126 162v273h84v-497h-63l-21 72c-28 -48 -73 -84 -155 -84c-116 0 -159 79 -159 192zM162 590c-30 0 -54 24 -54 54c0 29 24 53 54 53s54 -24 54 -53c0 -30 -24 -54 -54 -54zM320 644c0 29 24 53 53 53
c30 0 54 -24 54 -53c0 -30 -24 -54 -54 -54c-29 0 -53 24 -53 54z" />
    <glyph glyph-name="yacute" unicode="&#xfd;" horiz-adv-x="429" 
d="M179 -1l-179 496h93l122 -382l122 382h92l-176 -517c-36 -107 -62 -139 -173 -139h-43v74h34c72 0 85 10 108 86zM249 571h-70c8 10 78 104 96 123c7 9 18 13 28 13c9 0 19 -3 26 -10c8 -7 12 -17 12 -28c0 -9 -3 -18 -13 -28c-15 -17 -73 -65 -79 -70z" />
    <glyph glyph-name="ydieresis" unicode="&#xff;" horiz-adv-x="429" 
d="M179 -1l-179 496h93l122 -382l122 382h92l-176 -517c-36 -107 -62 -139 -173 -139h-43v74h34c72 0 85 10 108 86zM109 590c-30 0 -54 24 -54 54c0 29 24 53 54 53s54 -24 54 -53c0 -30 -24 -54 -54 -54zM320 590c-29 0 -53 24 -53 54c0 29 24 53 53 53
c30 0 54 -24 54 -53c0 -30 -24 -54 -54 -54z" />
    <glyph glyph-name="Scaron" unicode="&#x160;" horiz-adv-x="596" 
d="M40 146l87 26c23 -72 100 -105 173 -105c80 0 157 39 157 119c0 60 -44 90 -171 116c-103 22 -240 52 -240 199c0 113 122 179 245 179c94 0 190 -39 232 -125l-86 -25c-26 47 -89 71 -150 71c-73 0 -144 -34 -144 -104c0 -75 81 -92 172 -111c116 -25 241 -59 241 -204
c0 -124 -129 -194 -260 -194c-110 0 -221 50 -256 158zM137 861h94l67 -61l68 61h94l-112 -101c-14 -13 -32 -19 -49 -19c-18 0 -36 6 -50 19z" />
    <glyph glyph-name="scaron" unicode="&#x161;" horiz-adv-x="471" 
d="M31 112l81 30c15 -59 72 -83 127 -83c59 0 117 29 117 74c0 136 -315 36 -315 234c0 89 95 138 191 138c78 0 156 -32 186 -101l-79 -29c-17 40 -66 59 -113 59c-51 0 -100 -23 -100 -66c0 -120 315 -21 315 -232c0 -94 -99 -148 -202 -148c-86 0 -175 39 -208 124z
M74 689h94l67 -61l68 61h94l-112 -101c-14 -13 -32 -19 -49 -19c-18 0 -36 6 -50 19z" />
    <glyph glyph-name="Ydieresis" unicode="&#x178;" horiz-adv-x="595" 
d="M251 259l-241 409h103l185 -323l184 323h103l-240 -409v-259h-94v259zM192 740c-30 0 -54 24 -54 54c0 29 24 53 54 53s54 -24 54 -53c0 -30 -24 -54 -54 -54zM403 740c-29 0 -53 24 -53 54c0 29 24 53 53 53c30 0 54 -24 54 -53c0 -30 -24 -54 -54 -54z" />
    <glyph glyph-name="Zcaron" unicode="&#x17d;" horiz-adv-x="607" 
d="M44 0v81l394 506h-379v81h489v-81l-392 -506h407v-81h-519zM142 861h94l67 -61l68 61h94l-112 -101c-14 -13 -32 -19 -49 -19c-18 0 -36 6 -50 19z" />
    <glyph glyph-name="zcaron" unicode="&#x17e;" horiz-adv-x="460" 
d="M40 0v74l285 348h-276v74h371v-74l-285 -348h295v-74h-390zM69 689h94l67 -61l68 61h94l-112 -101c-14 -13 -32 -19 -49 -19c-18 0 -36 6 -50 19z" />
    <glyph glyph-name="Eth" unicode="&#xd0;" horiz-adv-x="712" 
d="M20 383h95v285h182c212 0 365 -79 365 -333c0 -256 -153 -335 -365 -335h-182v303h-95v80zM209 383h140v-80h-140v-224h86c138 0 271 28 271 256c0 226 -133 254 -271 254h-86v-206z" />
    <glyph glyph-name="zero.tf" horiz-adv-x="639" 
d="M320 -12c-172 0 -264 123 -264 347c0 222 92 345 264 345s264 -123 264 -345c0 -224 -92 -347 -264 -347zM147 335c0 -175 55 -273 173 -273c47 0 84 16 111 45l-264 379c-14 -41 -20 -92 -20 -151zM320 606c-44 0 -80 -14 -107 -40l263 -376c11 39 17 88 17 145
c0 174 -56 271 -173 271z" />
    <glyph glyph-name="one.tf" horiz-adv-x="639" 
d="M109 77h178v427h-178v67c96 0 176 15 205 97h56v-591h160v-77h-421v77z" />
    <glyph glyph-name="two.tf" horiz-adv-x="639" 
d="M560 0h-481v75c236 174 374 301 374 419c0 69 -46 116 -125 116c-63 0 -124 -31 -140 -112l-84 24c24 97 108 158 226 158c123 0 212 -63 212 -175c0 -155 -163 -293 -350 -428h368v-77z" />
    <glyph glyph-name="three.tf" horiz-adv-x="639" 
d="M84 151l83 24c15 -70 63 -117 148 -117c88 0 151 46 151 129c0 128 -153 127 -206 127v76c75 0 189 6 189 111c0 72 -59 109 -130 109c-82 0 -130 -46 -143 -112l-82 24c24 95 104 158 227 158c116 0 216 -46 216 -170c0 -68 -39 -126 -109 -155
c100 -31 128 -97 128 -167c0 -135 -115 -200 -242 -200c-135 0 -207 72 -230 163z" />
    <glyph glyph-name="four.tf" horiz-adv-x="639" 
d="M51 165v79l331 424h85v-424h122v-79h-122v-165h-84v165h-332zM142 244h241v309z" />
    <glyph glyph-name="five.tf" horiz-adv-x="639" 
d="M86 151l82 24c16 -73 61 -117 148 -117c80 0 149 58 149 161c0 111 -78 159 -150 159c-69 0 -115 -41 -129 -74l-82 24l41 340h383v-81h-315l-23 -187c35 34 89 50 144 50c117 0 219 -83 219 -230c0 -153 -113 -232 -237 -232c-135 0 -205 73 -230 163z" />
    <glyph glyph-name="six.tf" horiz-adv-x="639" 
d="M324 -12c-167 0 -243 116 -243 322c0 189 67 370 261 370c99 0 159 -47 188 -107l-85 -25c-20 39 -60 62 -113 62c-104 0 -160 -103 -164 -258c30 52 87 93 176 93c124 0 215 -93 215 -227c0 -124 -92 -230 -235 -230zM178 215c0 -92 57 -156 146 -156
c88 0 145 64 145 156s-57 156 -145 156c-89 0 -146 -64 -146 -156z" />
    <glyph glyph-name="seven.tf" horiz-adv-x="639" 
d="M167 0l290 587h-368v81h461v-81l-278 -587h-105z" />
    <glyph glyph-name="eight.tf" horiz-adv-x="639" 
d="M72 188c0 86 49 148 123 178c-35 33 -57 80 -57 133c0 100 81 181 181 181c101 0 182 -81 182 -181c0 -53 -22 -100 -57 -133c74 -30 123 -92 123 -178c0 -128 -108 -200 -248 -200c-139 0 -247 72 -247 200zM163 188c0 -78 61 -126 156 -126c96 0 157 48 157 126
s-61 129 -157 129c-95 0 -156 -51 -156 -129zM212 500c0 -61 48 -109 107 -109s107 48 107 109c0 59 -48 106 -107 106s-107 -47 -107 -106z" />
    <glyph glyph-name="nine.tf" horiz-adv-x="639" 
d="M320 201c-131 0 -239 107 -239 240c0 131 106 238 239 238s239 -105 239 -240c0 -30 -6 -61 -18 -91c-13 -33 -101 -198 -203 -348h-104s84 116 139 207c-17 -4 -34 -6 -53 -6zM320 594c-85 0 -153 -69 -153 -153c0 -85 68 -154 153 -154c86 0 155 69 155 154
c0 84 -69 153 -155 153z" />
    <glyph glyph-name="Abreve" unicode="&#x102;" horiz-adv-x="626" 
d="M10 0l251 669h105l250 -669h-100l-51 146h-304l-51 -146h-100zM190 227h246l-123 347zM392 855h69c-14 -68 -75 -120 -147 -120c-73 0 -133 52 -147 120h69c12 -31 42 -53 78 -53c35 0 65 22 78 53z" />
    <glyph glyph-name="abreve" unicode="&#x103;" horiz-adv-x="526" 
d="M398 0l-20 68c-30 -50 -82 -80 -169 -80c-94 0 -171 52 -171 143c0 118 132 152 335 175c3 84 -32 131 -112 131c-60 0 -99 -29 -110 -77l-81 24c27 76 101 120 190 120c137 0 196 -62 197 -201l1 -116c1 -83 8 -140 17 -187h-77zM380 239c-152 -16 -249 -38 -249 -106
c0 -47 36 -78 96 -78c78 0 153 36 153 153v31zM339 689h69c-14 -68 -75 -120 -147 -120c-73 0 -133 52 -147 120h69c12 -31 42 -53 78 -53c35 0 65 22 78 53z" />
    <glyph glyph-name="ogonek.case" horiz-adv-x="263" 
d="M53 -91c0 48 31 77 57 91h100c-56 -20 -87 -40 -87 -74c0 -28 21 -41 49 -41c12 0 25 2 38 8v-54c-23 -8 -44 -12 -63 -12c-60 0 -94 39 -94 82z" />
    <glyph glyph-name="Aogonek" unicode="&#x104;" horiz-adv-x="626" 
d="M110 0h-100l251 669h105l250 -669c-56 -20 -87 -40 -87 -74c0 -28 21 -41 49 -41c12 0 25 2 38 8v-54c-23 -8 -44 -12 -63 -12c-60 0 -94 39 -94 82c0 48 31 77 57 91l-51 146h-304zM313 574l-123 -347h246z" />
    <glyph glyph-name="aogonek" unicode="&#x105;" horiz-adv-x="526" 
d="M38 131c0 118 132 152 335 175c3 84 -32 131 -112 131c-60 0 -99 -29 -110 -77l-81 24c27 76 101 120 190 120c137 0 196 -62 197 -201l1 -116c1 -83 8 -140 17 -187c-68 -25 -87 -50 -87 -75c0 -27 21 -40 49 -40c12 0 25 2 38 8v-54c-23 -8 -44 -12 -63 -12
c-60 0 -94 39 -94 82c0 41 31 79 80 91l-20 68c-30 -50 -82 -80 -169 -80c-94 0 -171 52 -171 143zM131 133c0 -47 36 -78 96 -78c78 0 153 36 153 153v31c-152 -16 -249 -38 -249 -106z" />
    <glyph glyph-name="Emacron" unicode="&#x112;" horiz-adv-x="567" 
d="M76 0v668h453v-81h-359v-203h265v-81h-265v-222h359v-81h-453zM441 762h-276v67h276v-67z" />
    <glyph glyph-name="emacron" unicode="&#x113;" 
d="M281 -12c-156 0 -243 113 -243 259c0 157 105 257 241 257c158 0 241 -137 231 -279h-382c4 -125 92 -163 153 -163c56 0 93 19 116 49l81 -24c-36 -58 -104 -99 -197 -99zM129 292h292c-1 70 -54 140 -142 140c-75 0 -142 -40 -150 -140zM141 668h276v-67h-276v67z" />
    <glyph glyph-name="Edotaccent" unicode="&#x116;" horiz-adv-x="567" 
d="M76 668h453v-81h-359v-203h265v-81h-265v-222h359v-81h-453v668zM249 816c0 30 24 54 54 54s54 -24 54 -54s-24 -54 -54 -54s-54 24 -54 54z" />
    <glyph glyph-name="edotaccent" unicode="&#x117;" 
d="M281 -12c-156 0 -243 113 -243 259c0 157 105 257 241 257c158 0 241 -137 231 -279h-382c4 -125 92 -163 153 -163c56 0 93 19 116 49l81 -24c-36 -58 -104 -99 -197 -99zM279 432c-75 0 -142 -40 -150 -140h292c-1 70 -54 140 -142 140zM279 590c-30 0 -54 24 -54 54
s24 54 54 54s54 -24 54 -54s-24 -54 -54 -54z" />
    <glyph glyph-name="Eogonek" unicode="&#x118;" horiz-adv-x="567" 
d="M409 0h-333v668h453v-81h-359v-203h265v-81h-265v-222h359v-81h-20c-56 -20 -87 -40 -87 -74c0 -28 21 -41 49 -41c12 0 25 2 38 8v-54c-23 -8 -44 -12 -63 -12c-60 0 -94 39 -94 82c0 48 31 77 57 91z" />
    <glyph glyph-name="eogonek" unicode="&#x119;" 
d="M38 247c0 157 105 257 241 257c158 0 241 -137 231 -279h-382c4 -125 92 -163 153 -163c56 0 93 19 116 49l81 -24c-20 -32 -49 -58 -87 -76c-43 -25 -67 -51 -67 -81c0 -32 21 -45 49 -45c12 0 25 2 38 8v-54c-23 -8 -44 -12 -63 -12c-60 0 -94 39 -94 88
c0 30 12 54 30 73c-155 -1 -246 109 -246 259zM279 432c-75 0 -142 -40 -150 -140h292c-1 70 -54 140 -142 140z" />
    <glyph glyph-name="Ecaron" unicode="&#x11a;" horiz-adv-x="567" 
d="M76 668h453v-81h-359v-203h265v-81h-265v-222h359v-81h-453v668zM253 760l-112 101h94l67 -61l68 61h94l-112 -101c-14 -13 -32 -19 -49 -19c-18 0 -36 6 -50 19z" />
    <glyph glyph-name="ecaron" unicode="&#x11b;" 
d="M38 247c0 157 105 257 241 257c158 0 241 -137 231 -279h-382c4 -125 92 -163 153 -163c56 0 93 19 116 49l81 -24c-36 -58 -104 -99 -197 -99c-156 0 -243 113 -243 259zM279 432c-75 0 -142 -40 -150 -140h292c-1 70 -54 140 -142 140zM118 689h94l67 -61l68 61h94
l-112 -101c-14 -13 -32 -19 -49 -19c-18 0 -36 6 -50 19z" />
    <glyph glyph-name="Ohungarumlaut" unicode="&#x150;" horiz-adv-x="727" 
d="M50 335c0 201 121 345 313 345c193 0 314 -144 314 -345c0 -202 -121 -347 -314 -347c-192 0 -313 145 -313 347zM146 335c0 -173 96 -268 217 -268c122 0 218 95 218 268c0 172 -96 266 -218 266c-121 0 -217 -94 -217 -266zM333 744h-70l16 22l80 101c7 9 18 13 28 13
c21 0 38 -17 38 -38c0 -9 -2 -19 -11 -27zM479 744h-70l16 22l80 101c7 9 18 13 28 13c20 0 38 -18 38 -38c0 -9 -2 -19 -11 -27z" />
    <glyph glyph-name="ohungarumlaut" unicode="&#x151;" horiz-adv-x="552" 
d="M38 246c0 179 124 258 238 258c115 0 238 -79 238 -258s-123 -258 -238 -258c-114 0 -238 79 -238 258zM128 246c0 -128 77 -184 148 -184c72 0 148 56 148 184s-76 184 -148 184c-71 0 -148 -56 -148 -184zM230 572h-70l16 22l80 101c7 9 18 13 28 13
c21 0 38 -17 38 -38c0 -9 -2 -19 -11 -27zM376 572h-70l16 22l80 101c7 9 18 13 28 13c20 0 38 -18 38 -38c0 -9 -2 -19 -11 -27z" />
    <glyph glyph-name="Imacron" unicode="&#x12a;" horiz-adv-x="414" 
d="M66 74h94v520h-94v74h282v-74h-94v-520h94v-74h-282v74zM69 762v67h276v-67h-276z" />
    <glyph glyph-name="imacron" unicode="&#x12b;" horiz-adv-x="278" 
d="M114 0v429h-69v67h153v-496h-84zM14 601v67h276v-67h-276z" />
    <glyph glyph-name="Iogonek" unicode="&#x12e;" horiz-adv-x="414" 
d="M168 0h-102v74h94v520h-94v74h282v-74h-94v-520h94v-74h-80c-56 -20 -87 -40 -87 -74c0 -28 21 -41 49 -41c12 0 25 2 38 8v-54c-23 -8 -44 -12 -63 -12c-60 0 -94 39 -94 82c0 48 31 77 57 91z" />
    <glyph glyph-name="iogonek" unicode="&#x12f;" horiz-adv-x="278" 
d="M129 -173c-60 0 -94 39 -94 82c0 41 31 79 80 91h-1v429h-69v67h153v-496h-6c-68 -25 -87 -50 -87 -75c0 -27 21 -40 49 -40c12 0 25 2 38 8v-54c-23 -8 -44 -12 -63 -12zM94 653c0 34 28 62 62 62c35 0 63 -28 63 -62c0 -35 -28 -63 -63 -63c-34 0 -62 28 -62 63z" />
    <glyph glyph-name="Cacute" unicode="&#x106;" horiz-adv-x="656" 
d="M50 335c0 208 122 345 311 345c112 0 207 -54 253 -151l-82 -30c-30 60 -89 102 -176 102c-118 0 -210 -92 -210 -266c0 -168 88 -268 213 -268c87 0 146 41 177 102l82 -30c-48 -99 -147 -151 -265 -151c-191 0 -303 144 -303 347zM317 744c9 9 90 94 107 108
c9 8 19 12 29 12c20 0 36 -16 36 -36c0 -11 -5 -23 -16 -32c-17 -15 -74 -48 -80 -52h-76z" />
    <glyph glyph-name="cacute" unicode="&#x107;" horiz-adv-x="500" 
d="M38 246c0 148 93 258 240 258c89 0 155 -51 187 -112l-77 -28c-22 40 -65 66 -116 66c-75 0 -143 -58 -143 -183s69 -185 143 -185c54 0 96 28 118 65l77 -28c-37 -64 -110 -111 -198 -111c-142 0 -231 108 -231 258zM234 571c8 10 78 104 96 123c7 9 18 13 28 13
c9 0 19 -3 26 -10c8 -7 12 -17 12 -28c0 -9 -3 -18 -13 -28c-15 -17 -73 -65 -79 -70h-70z" />
    <glyph glyph-name="Cdotaccent" unicode="&#x10a;" horiz-adv-x="656" 
d="M50 335c0 208 122 345 311 345c112 0 207 -54 253 -151l-82 -30c-30 60 -89 102 -176 102c-118 0 -210 -92 -210 -266c0 -168 88 -268 213 -268c87 0 146 41 177 102l82 -30c-48 -99 -147 -151 -265 -151c-191 0 -303 144 -303 347zM361 742c-30 0 -54 24 -54 54
s24 54 54 54s54 -24 54 -54s-24 -54 -54 -54z" />
    <glyph glyph-name="cdotaccent" unicode="&#x10b;" horiz-adv-x="500" 
d="M38 246c0 148 93 258 240 258c89 0 155 -51 187 -112l-77 -28c-22 40 -65 66 -116 66c-75 0 -143 -58 -143 -183s69 -185 143 -185c54 0 96 28 118 65l77 -28c-37 -64 -110 -111 -198 -111c-142 0 -231 108 -231 258zM277 590c-30 0 -54 24 -54 54s24 54 54 54
s54 -24 54 -54s-24 -54 -54 -54z" />
    <glyph glyph-name="uni0326" unicode="&#x326;" horiz-adv-x="280" 
d="M94 -250l-40 34c32 0 94 7 94 69c0 26 -13 52 -50 65l60 26c40 -21 56 -55 56 -87c0 -63 -50 -107 -120 -107z" />
    <glyph glyph-name="Sacute" unicode="&#x15a;" horiz-adv-x="596" 
d="M40 146l87 26c23 -72 100 -105 173 -105c80 0 157 39 157 119c0 60 -44 90 -171 116c-103 22 -240 52 -240 199c0 113 122 179 245 179c94 0 190 -39 232 -125l-86 -25c-26 47 -89 71 -150 71c-73 0 -144 -34 -144 -104c0 -75 81 -92 172 -111c116 -25 241 -59 241 -204
c0 -124 -129 -194 -260 -194c-110 0 -221 50 -256 158zM328 744h-76c9 9 90 94 107 108c9 8 19 12 29 12c20 0 36 -16 36 -36c0 -11 -5 -23 -16 -32c-17 -15 -74 -48 -80 -52z" />
    <glyph glyph-name="sacute" unicode="&#x15b;" horiz-adv-x="471" 
d="M31 112l81 30c15 -59 72 -83 127 -83c59 0 117 29 117 74c0 136 -315 36 -315 234c0 89 95 138 191 138c78 0 156 -32 186 -101l-79 -29c-17 40 -66 59 -113 59c-51 0 -100 -23 -100 -66c0 -120 315 -21 315 -232c0 -94 -99 -148 -202 -148c-86 0 -175 39 -208 124z
M268 570h-70c8 10 78 104 96 123c7 9 18 13 28 13c9 0 19 -3 26 -10c8 -7 12 -17 12 -28c0 -9 -3 -18 -13 -28c-15 -17 -73 -65 -79 -70z" />
    <glyph glyph-name="uni0218" unicode="&#x218;" horiz-adv-x="596" 
d="M40 146l87 26c23 -72 100 -105 173 -105c80 0 157 39 157 119c0 60 -44 90 -171 116c-103 22 -240 52 -240 199c0 113 122 179 245 179c94 0 190 -39 232 -125l-86 -25c-26 47 -89 71 -150 71c-73 0 -144 -34 -144 -104c0 -75 81 -92 172 -111c116 -25 241 -59 241 -204
c0 -124 -129 -194 -260 -194c-110 0 -221 50 -256 158zM252 -250l-40 34c32 0 94 7 94 69c0 26 -13 52 -50 65l60 26c40 -21 56 -55 56 -87c0 -63 -50 -107 -120 -107z" />
    <glyph glyph-name="uni0219" unicode="&#x219;" horiz-adv-x="471" 
d="M31 112l81 30c15 -59 72 -83 127 -83c59 0 117 29 117 74c0 136 -315 36 -315 234c0 89 95 138 191 138c78 0 156 -32 186 -101l-79 -29c-17 40 -66 59 -113 59c-51 0 -100 -23 -100 -66c0 -120 315 -21 315 -232c0 -94 -99 -148 -202 -148c-86 0 -175 39 -208 124z
M190 -250l-40 34c32 0 94 7 94 69c0 26 -13 52 -50 65l60 26c40 -21 56 -55 56 -87c0 -63 -50 -107 -120 -107z" />
    <glyph glyph-name="Umacron" unicode="&#x16a;" horiz-adv-x="690" 
d="M76 279v389h94v-396c0 -132 47 -203 175 -203s175 71 175 203v396h94v-389c0 -195 -74 -291 -269 -291c-194 0 -269 96 -269 291zM483 762h-276v67h276v-67z" />
    <glyph glyph-name="umacron" unicode="&#x16b;" horiz-adv-x="536" 
d="M68 180v317h84v-292c0 -77 13 -143 104 -143c79 0 126 56 126 162v273h84v-497h-63l-21 72c-28 -48 -73 -84 -155 -84c-116 0 -159 79 -159 192zM405 601h-276v67h276v-67z" />
    <glyph glyph-name="Uring" unicode="&#x16e;" horiz-adv-x="690" 
d="M345 -12c-194 0 -269 96 -269 291v389h94v-396c0 -132 47 -203 175 -203s175 71 175 203v396h94v-389c0 -195 -74 -291 -269 -291zM236 777c0 59 49 109 111 109c61 0 107 -50 107 -109s-46 -109 -107 -109c-62 0 -111 50 -111 109zM293 777c0 -28 23 -51 52 -51
s52 23 52 51s-23 51 -52 51s-52 -23 -52 -51z" />
    <glyph glyph-name="uring" unicode="&#x16f;" horiz-adv-x="536" 
d="M68 497h84v-292c0 -77 13 -143 104 -143c79 0 126 56 126 162v273h84v-497h-63l-21 72c-28 -48 -73 -84 -155 -84c-116 0 -159 79 -159 192v317zM269 559c-62 0 -111 50 -111 109s49 109 111 109c61 0 107 -50 107 -109s-46 -109 -107 -109zM267 719
c-29 0 -52 -23 -52 -51s23 -51 52 -51s52 23 52 51s-23 51 -52 51z" />
    <glyph glyph-name="Uhungarumlaut" unicode="&#x170;" horiz-adv-x="690" 
d="M76 668h94v-396c0 -132 47 -203 175 -203s175 71 175 203v396h94v-389c0 -195 -74 -291 -269 -291c-194 0 -269 96 -269 291v389zM310 744h-70l16 22l80 101c7 9 18 13 28 13c21 0 38 -17 38 -38c0 -9 -2 -19 -11 -27zM456 744h-70l16 22l80 101c7 9 18 13 28 13
c20 0 38 -18 38 -38c0 -9 -2 -19 -11 -27z" />
    <glyph glyph-name="uhungarumlaut" unicode="&#x171;" horiz-adv-x="536" 
d="M68 497h84v-292c0 -77 13 -143 104 -143c79 0 126 56 126 162v273h84v-497h-63l-21 72c-28 -48 -73 -84 -155 -84c-116 0 -159 79 -159 192v317zM224 572h-70l16 22l80 101c7 9 18 13 28 13c21 0 38 -17 38 -38c0 -9 -2 -19 -11 -27zM370 572h-70l16 22l80 101
c7 9 18 13 28 13c20 0 38 -18 38 -38c0 -9 -2 -19 -11 -27z" />
    <glyph glyph-name="Uogonek" unicode="&#x172;" horiz-adv-x="690" 
d="M76 279v389h94v-396c0 -132 47 -203 175 -203s175 71 175 203v396h94v-389c0 -175 -60 -271 -214 -288c-41 -17 -63 -36 -63 -65c0 -28 21 -41 49 -41c12 0 25 2 38 8v-54c-23 -8 -44 -12 -63 -12c-60 0 -94 39 -94 82c0 38 19 64 40 80c-166 12 -231 108 -231 290z" />
    <glyph glyph-name="uogonek" unicode="&#x173;" horiz-adv-x="536" 
d="M68 497h84v-292c0 -77 13 -143 104 -143c79 0 126 56 126 162v273h84v-497c-68 -25 -87 -50 -87 -75c0 -27 21 -40 49 -40c12 0 25 2 38 8v-54c-23 -8 -44 -12 -63 -12c-60 0 -94 39 -94 82c0 49 35 85 93 95l-20 68c-28 -48 -73 -84 -155 -84c-116 0 -159 79 -159 192
v317z" />
    <glyph glyph-name="Nacute" unicode="&#x143;" horiz-adv-x="689" 
d="M76 0v668h139l304 -568v568h94v-668h-138l-305 571v-571h-94zM395 745h-76c9 9 90 94 107 108c9 8 19 12 29 12c20 0 36 -16 36 -36c0 -11 -5 -23 -16 -32c-17 -15 -74 -48 -80 -52z" />
    <glyph glyph-name="nacute" unicode="&#x144;" horiz-adv-x="546" 
d="M70 496h62l22 -75c28 47 76 83 160 83c120 0 164 -77 164 -190v-314h-84v289c0 76 -13 143 -109 143c-81 0 -131 -57 -131 -163v-269h-84v496zM315 571h-70c8 10 78 104 96 123c7 9 18 13 28 13c9 0 19 -3 26 -10c8 -7 12 -17 12 -28c0 -9 -3 -18 -13 -28
c-15 -17 -73 -65 -79 -70z" />
    <glyph glyph-name="Ncaron" unicode="&#x147;" horiz-adv-x="689" 
d="M76 0v668h139l304 -568v568h94v-668h-138l-305 571v-571h-94zM295 760l-112 101h94l67 -61l68 61h94l-112 -101c-14 -13 -32 -19 -49 -19c-18 0 -36 6 -50 19z" />
    <glyph glyph-name="ncaron" unicode="&#x148;" horiz-adv-x="546" 
d="M154 0h-84v496h62l22 -75c28 47 76 83 160 83c120 0 164 -77 164 -190v-314h-84v289c0 76 -13 143 -109 143c-81 0 -131 -57 -131 -163v-269zM111 689h94l67 -61l68 61h94l-112 -101c-14 -13 -32 -19 -49 -19c-18 0 -36 6 -50 19z" />
    <glyph glyph-name="Zacute" unicode="&#x179;" horiz-adv-x="607" 
d="M44 0v81l394 506h-379v81h489v-81l-392 -506h407v-81h-519zM314 744h-76c9 9 90 94 107 108c9 8 19 12 29 12c20 0 36 -16 36 -36c0 -11 -5 -23 -16 -32c-17 -15 -74 -48 -80 -52z" />
    <glyph glyph-name="zacute" unicode="&#x17a;" horiz-adv-x="460" 
d="M430 0h-390v74l285 348h-276v74h371v-74l-285 -348h295v-74zM274 570h-70c8 10 78 104 96 123c7 9 18 13 28 13c9 0 19 -3 26 -10c8 -7 12 -17 12 -28c0 -9 -3 -18 -13 -28c-15 -17 -73 -65 -79 -70z" />
    <glyph glyph-name="Zdotaccent" unicode="&#x17b;" horiz-adv-x="607" 
d="M44 0v81l394 506h-379v81h489v-81l-392 -506h407v-81h-519zM250 799c0 30 24 54 54 54s54 -24 54 -54s-24 -54 -54 -54s-54 24 -54 54z" />
    <glyph glyph-name="zdotaccent" unicode="&#x17c;" horiz-adv-x="460" 
d="M40 0v74l285 348h-276v74h371v-74l-285 -348h295v-74h-390zM176 644c0 30 24 54 54 54s54 -24 54 -54s-24 -54 -54 -54s-54 24 -54 54z" />
    <glyph glyph-name="Hbar" unicode="&#x126;" horiz-adv-x="710" 
d="M624 583h76v-79h-76v-504h-94v303h-350v-303h-94v504h-76v79h76v85h94v-85h350v85h94v-85zM530 504h-350v-120h350v120z" />
    <glyph glyph-name="hbar" unicode="&#x127;" horiz-adv-x="581" 
d="M189 615h160v-67h-160v-127c28 47 76 83 160 83c120 0 164 -77 164 -190v-314h-84v289c0 76 -13 143 -109 143c-81 0 -131 -57 -131 -163v-269h-84v548h-85v67h85v53h84v-53z" />
    <glyph glyph-name="Gbreve" unicode="&#x11e;" horiz-adv-x="710" 
d="M358 264v81h284v-345h-54l-25 84c-43 -68 -121 -96 -211 -96c-192 0 -302 144 -302 347c0 208 122 345 311 345c112 0 207 -54 254 -151l-83 -30c-30 60 -89 102 -176 102c-118 0 -210 -92 -210 -266c0 -168 86 -268 210 -268c89 0 197 37 197 175v22h-195zM439 861h69
c-14 -68 -75 -120 -147 -120c-73 0 -133 52 -147 120h69c12 -31 42 -53 78 -53c35 0 65 22 78 53z" />
    <glyph glyph-name="gbreve" unicode="&#x11f;" horiz-adv-x="560" 
d="M81 -76l84 23c18 -52 68 -65 109 -65c25 0 47 5 56 8c61 21 76 57 76 138v66c-31 -52 -79 -85 -158 -85c-110 0 -210 88 -210 247s100 248 210 248c79 0 127 -34 158 -86l23 78h61v-449c0 -98 -6 -181 -121 -223c-28 -10 -61 -16 -95 -16c-81 0 -167 33 -193 116zM269 79
c75 0 140 51 140 177s-65 176 -140 176c-82 0 -140 -63 -140 -176s58 -177 140 -177zM347 689h69c-14 -68 -75 -120 -147 -120c-73 0 -133 52 -147 120h69c12 -31 42 -53 78 -53c35 0 65 22 78 53z" />
    <glyph glyph-name="Gdotaccent" unicode="&#x120;" horiz-adv-x="710" 
d="M50 335c0 208 122 345 311 345c112 0 207 -54 254 -151l-83 -30c-30 60 -89 102 -176 102c-118 0 -210 -92 -210 -266c0 -168 86 -268 210 -268c89 0 197 37 197 175v22h-195v81h284v-345h-54l-25 84c-43 -68 -121 -96 -211 -96c-192 0 -302 144 -302 347zM357 762
c-30 0 -54 24 -54 54s24 54 54 54s54 -24 54 -54s-24 -54 -54 -54z" />
    <glyph glyph-name="gdotaccent" unicode="&#x121;" horiz-adv-x="560" 
d="M248 9c-110 0 -210 88 -210 247s100 248 210 248c79 0 127 -34 158 -86l23 78h61v-449c0 -98 -6 -181 -121 -223c-28 -10 -61 -16 -95 -16c-81 0 -167 33 -193 116l84 23c18 -52 68 -65 109 -65c25 0 47 5 56 8c61 21 76 57 76 138v66c-31 -52 -79 -85 -158 -85zM269 432
c-82 0 -140 -63 -140 -176s58 -177 140 -177c75 0 140 51 140 177s-65 176 -140 176zM220 645c0 30 24 54 54 54s54 -24 54 -54s-24 -54 -54 -54s-54 24 -54 54z" />
    <glyph glyph-name="uni0123" unicode="&#x123;" horiz-adv-x="560" 
d="M81 -76l84 23c18 -52 68 -65 109 -65c25 0 47 5 56 8c61 21 76 57 76 138v66c-31 -52 -79 -85 -158 -85c-110 0 -210 88 -210 247s100 248 210 248c79 0 127 -34 158 -86l23 78h61v-449c0 -98 -6 -181 -121 -223c-28 -10 -61 -16 -95 -16c-81 0 -167 33 -193 116zM269 79
c75 0 140 51 140 177s-65 176 -140 176c-82 0 -140 -63 -140 -176s58 -177 140 -177zM311 773l40 -34c-32 0 -94 -7 -94 -69c0 -26 13 -52 50 -65l-60 -26c-40 21 -56 55 -56 87c0 63 50 107 120 107z" />
    <glyph glyph-name="uni013B" unicode="&#x13b;" 
d="M76 0v668h94v-587h359v-81h-453zM239 -251l-40 34c32 0 94 7 94 69c0 26 -13 52 -50 65l60 26c40 -21 56 -55 56 -87c0 -63 -50 -107 -120 -107z" />
    <glyph glyph-name="uni013C" unicode="&#x13c;" horiz-adv-x="239" 
d="M224 0h-37c-95 0 -117 21 -117 124v543h84v-529c0 -51 4 -64 51 -64h19v-74zM76 -250l-40 34c32 0 94 7 94 69c0 26 -13 52 -50 65l60 26c40 -21 56 -55 56 -87c0 -63 -50 -107 -120 -107z" />
    <glyph glyph-name="Tcaron" unicode="&#x164;" horiz-adv-x="558" 
d="M10 668h538v-81h-222v-587h-94v587h-222v81zM230 760l-112 101h94l67 -61l68 61h94l-112 -101c-14 -13 -32 -19 -49 -19c-18 0 -36 6 -50 19z" />
    <glyph glyph-name="uni021A" unicode="&#x21a;" horiz-adv-x="558" 
d="M232 0v587h-222v81h538v-81h-222v-587h-94zM226 -250l-40 34c32 0 94 7 94 69c0 26 -13 52 -50 65l60 26c40 -21 56 -55 56 -87c0 -63 -50 -107 -120 -107z" />
    <glyph glyph-name="uni021B" unicode="&#x21b;" horiz-adv-x="324" 
d="M284 0h-63c-95 0 -117 21 -117 124v305h-84v67h84v125h84v-125h96v-67h-96v-291c0 -51 3 -64 51 -64h45v-74zM116 -250l-40 34c32 0 94 7 94 69c0 26 -13 52 -50 65l60 26c40 -21 56 -55 56 -87c0 -63 -50 -107 -120 -107z" />
    <glyph glyph-name="caron.salt" horiz-adv-x="206" 
d="M102 495h-49c2 13 19 129 26 154c2 11 13 29 36 29c24 0 44 -20 37 -49z" />
    <glyph glyph-name="lcaron" unicode="&#x13e;" horiz-adv-x="257" 
d="M224 0h-37c-95 0 -117 21 -117 124v543h84v-529c0 -51 4 -64 51 -64h19v-74zM245 496h-49c2 13 19 129 26 154c2 11 13 29 36 29c24 0 44 -20 37 -49z" />
    <glyph glyph-name="Lcaron" unicode="&#x13d;" 
d="M76 0v668h94v-587h359v-81h-453zM278 496h-49c2 13 19 129 26 154c2 11 13 29 36 29c24 0 44 -20 37 -49z" />
    <glyph glyph-name="tcaron" unicode="&#x165;" horiz-adv-x="324" 
d="M284 0h-63c-95 0 -117 21 -117 124v305h-84v67h84v125h84v-125h96v-67h-96v-291c0 -51 3 -64 51 -64h45v-74zM284 545h-49c2 13 19 129 26 154c2 11 13 29 36 29c24 0 44 -20 37 -49z" />
    <glyph glyph-name="uni0145" unicode="&#x145;" horiz-adv-x="689" 
d="M76 0v668h139l304 -568v568h94v-668h-138l-305 571v-571h-94zM299 -250l-40 34c32 0 94 7 94 69c0 26 -13 52 -50 65l60 26c40 -21 56 -55 56 -87c0 -63 -50 -107 -120 -107z" />
    <glyph glyph-name="uni0146" unicode="&#x146;" horiz-adv-x="546" 
d="M70 0v496h62l22 -75c28 47 76 83 160 83c120 0 164 -77 164 -190v-314h-84v289c0 76 -13 143 -109 143c-81 0 -131 -57 -131 -163v-269h-84zM227 -250l-40 34c32 0 94 7 94 69c0 26 -13 52 -50 65l60 26c40 -21 56 -55 56 -87c0 -63 -50 -107 -120 -107z" />
    <glyph glyph-name="Racute" unicode="&#x154;" horiz-adv-x="618" 
d="M170 0h-94v668h212c163 0 278 -32 278 -192c0 -91 -30 -166 -185 -188l207 -288h-115l-203 281h-100v-281zM295 589h-125v-229h125c98 0 175 11 175 114s-77 115 -175 115zM263 744c9 9 90 94 107 108c9 8 19 12 29 12c20 0 36 -16 36 -36c0 -11 -5 -23 -16 -32
c-17 -15 -74 -48 -80 -52h-76z" />
    <glyph glyph-name="racute" unicode="&#x155;" horiz-adv-x="340" 
d="M70 496h61l27 -92c35 60 94 100 177 100v-87c-136 0 -181 -72 -181 -204v-213h-84v496zM141 571c8 10 78 104 96 123c7 9 18 13 28 13c9 0 19 -3 26 -10c8 -7 12 -17 12 -28c0 -9 -3 -18 -13 -28c-15 -17 -73 -65 -79 -70h-70z" />
    <glyph glyph-name="Rcaron" unicode="&#x158;" horiz-adv-x="618" 
d="M76 0v668h212c163 0 278 -32 278 -192c0 -91 -30 -166 -185 -188l207 -288h-115l-203 281h-100v-281h-94zM170 589v-229h125c98 0 175 11 175 114s-77 115 -175 115h-125zM148 861h94l67 -61l68 61h94l-112 -101c-14 -13 -32 -19 -49 -19c-18 0 -36 6 -50 19z" />
    <glyph glyph-name="rcaron" unicode="&#x159;" horiz-adv-x="340" 
d="M154 0h-84v496h61l27 -92c35 60 94 100 177 100v-87c-136 0 -181 -72 -181 -204v-213zM158 588l-112 101h94l67 -61l68 61h94l-112 -101c-14 -13 -32 -19 -49 -19c-18 0 -36 6 -50 19z" />
    <glyph glyph-name="uni0162" unicode="&#x162;" horiz-adv-x="558" 
d="M232 0v587h-222v81h538v-81h-222v-587h-94zM225 -250l-40 34c32 0 94 7 94 69c0 26 -13 52 -50 65l60 26c40 -21 56 -55 56 -87c0 -63 -50 -107 -120 -107z" />
    <glyph glyph-name="uni0163" unicode="&#x163;" horiz-adv-x="324" 
d="M284 0h-63c-95 0 -117 21 -117 124v305h-84v67h84v125h84v-125h96v-67h-96v-291c0 -51 3 -64 51 -64h45v-74zM108 -250l-40 34c32 0 94 7 94 69c0 26 -13 52 -50 65l60 26c40 -21 56 -55 56 -87c0 -63 -50 -107 -120 -107z" />
    <glyph glyph-name="Dcroat" unicode="&#x110;" horiz-adv-x="732" 
d="M40 383h95v285h182c212 0 365 -79 365 -333c0 -256 -153 -335 -365 -335h-182v303h-95v80zM229 383h140v-80h-140v-224h86c138 0 271 28 271 256c0 226 -133 254 -271 254h-86v-206z" />
    <glyph glyph-name="dcroat" unicode="&#x111;" horiz-adv-x="603" 
d="M38 246c0 163 100 258 213 258c78 0 131 -34 161 -86v130h-163v67h163v53h84v-53h82v-67h-82v-361c0 -33 0 -100 17 -187h-79l-22 75c-30 -53 -83 -87 -161 -87c-113 0 -213 94 -213 258zM132 246c0 -118 56 -186 141 -186s141 68 141 186s-56 186 -141 186
s-141 -68 -141 -186z" />
    <glyph glyph-name="Dcaron" unicode="&#x10e;" horiz-adv-x="673" 
d="M258 0h-182v668h182c212 0 365 -79 365 -333c0 -256 -153 -335 -365 -335zM170 79h86c138 0 271 28 271 256c0 226 -133 254 -271 254h-86v-510zM277 760l-112 101h94l67 -61l68 61h94l-112 -101c-14 -13 -32 -19 -49 -19c-18 0 -36 6 -50 19z" />
    <glyph glyph-name="dcaron" unicode="&#x10f;" horiz-adv-x="597" 
d="M434 0l-22 75c-30 -53 -83 -87 -161 -87c-113 0 -213 94 -213 258c0 163 100 258 213 258c78 0 131 -34 161 -86v250h84v-481c0 -33 0 -100 17 -187h-79zM273 60c85 0 141 68 141 186s-56 186 -141 186s-141 -68 -141 -186s56 -186 141 -186zM586 496h-49
c2 13 19 129 26 154c2 11 13 29 36 29c24 0 44 -20 37 -49z" />
    <glyph glyph-name="uni0136" unicode="&#x136;" horiz-adv-x="627" 
d="M76 0v668h94v-336l301 336h117l-255 -279l284 -389h-115l-232 320l-100 -110v-210h-94zM249 -250l-40 34c32 0 94 7 94 69c0 26 -13 52 -50 65l60 26c40 -21 56 -55 56 -87c0 -63 -50 -107 -120 -107z" />
    <glyph glyph-name="uni0137" unicode="&#x137;" horiz-adv-x="490" 
d="M70 0v668h84v-395l200 223h101l-187 -205l212 -291h-103l-165 229l-58 -63v-166h-84zM186 -250l-40 34c32 0 94 7 94 69c0 26 -13 52 -50 65l60 26c40 -21 56 -55 56 -87c0 -63 -50 -107 -120 -107z" />
    <glyph glyph-name="uni0122" unicode="&#x122;" horiz-adv-x="710" 
d="M358 264v81h284v-345h-54l-25 84c-43 -68 -121 -96 -211 -96c-192 0 -302 144 -302 347c0 208 122 345 311 345c112 0 207 -54 254 -151l-83 -30c-30 60 -89 102 -176 102c-118 0 -210 -92 -210 -266c0 -168 86 -268 210 -268c89 0 197 37 197 175v22h-195zM301 -250
l-40 34c32 0 94 7 94 69c0 26 -13 52 -50 65l60 26c40 -21 56 -55 56 -87c0 -63 -50 -107 -120 -107z" />
    <glyph glyph-name="Ccaron" unicode="&#x10c;" horiz-adv-x="656" 
d="M353 -12c-191 0 -303 144 -303 347c0 208 122 345 311 345c112 0 207 -54 253 -151l-82 -30c-30 60 -89 102 -176 102c-118 0 -210 -92 -210 -266c0 -168 88 -268 213 -268c87 0 146 41 177 102l82 -30c-48 -99 -147 -151 -265 -151zM198 861h94l67 -61l68 61h94
l-112 -101c-14 -13 -32 -19 -49 -19c-18 0 -36 6 -50 19z" />
    <glyph glyph-name="ccaron" unicode="&#x10d;" horiz-adv-x="500" 
d="M38 246c0 148 93 258 240 258c89 0 155 -51 187 -112l-77 -28c-22 40 -65 66 -116 66c-75 0 -143 -58 -143 -183s69 -185 143 -185c54 0 96 28 118 65l77 -28c-37 -64 -110 -111 -198 -111c-142 0 -231 108 -231 258zM227 588l-112 101h94l67 -61l68 61h94l-112 -101
c-14 -13 -32 -19 -49 -19c-18 0 -36 6 -50 19z" />
    <glyph glyph-name="Scedilla" unicode="&#x15e;" horiz-adv-x="596" 
d="M40 146l87 26c23 -72 100 -105 173 -105c80 0 157 39 157 119c0 60 -44 90 -171 116c-103 22 -240 52 -240 199c0 113 122 179 245 179c94 0 190 -39 232 -125l-86 -25c-26 47 -89 71 -150 71c-73 0 -144 -34 -144 -104c0 -75 81 -92 172 -111c116 -25 241 -59 241 -204
c0 -124 -129 -194 -260 -194c-110 0 -221 50 -256 158zM206 -161l14 35c23 -10 42 -14 58 -14c34 0 51 18 51 34c0 13 -11 25 -36 25c-9 0 -19 -2 -31 -5c-18 -5 -28 7 -28 19c0 4 1 7 3 10l51 82l34 -21l-30 -49c11 2 21 4 30 4c46 0 69 -29 69 -61c0 -38 -32 -79 -97 -79
c-25 0 -54 6 -88 20z" />
    <glyph glyph-name="scedilla" unicode="&#x15f;" horiz-adv-x="471" 
d="M31 112l81 30c15 -59 72 -83 127 -83c59 0 117 29 117 74c0 136 -315 36 -315 234c0 89 95 138 191 138c78 0 156 -32 186 -101l-79 -29c-17 40 -66 59 -113 59c-51 0 -100 -23 -100 -66c0 -120 315 -21 315 -232c0 -94 -99 -148 -202 -148c-86 0 -175 39 -208 124z
M150 -161l14 35c23 -10 42 -14 58 -14c34 0 51 18 51 34c0 13 -11 25 -36 25c-9 0 -19 -2 -31 -5c-18 -5 -28 7 -28 19c0 4 1 7 3 10l51 82l34 -21l-30 -49c11 2 21 4 30 4c46 0 69 -29 69 -61c0 -38 -32 -79 -97 -79c-25 0 -54 6 -88 20z" />
    </font>
</defs>
</svg>
