<?xml version="1.0" standalone="no"?>
<!DOCTYPE svg PUBLIC "-//W3C//DTD SVG 1.1//EN" "http://www.w3.org/Graphics/SVG/1.1/DTD/svg11.dtd" >
<svg xmlns="http://www.w3.org/2000/svg" xmlns:xlink="http://www.w3.org/1999/xlink" version="1.1">
<metadata>
Created by FontForge 20170924 at Mon Apr 27 13:29:00 2020
 By www-data
\(c\) 2020 Braille Institute of America, Inc., a 501\(c\)\(3\) Charitable Organization.
</metadata>
<defs>
<font id="AtkinsonHyperlegible-Bold" horiz-adv-x="632" >
  <font-face 
    font-family="Atkinson Hyperlegible"
    font-weight="700"
    font-stretch="normal"
    units-per-em="1000"
    panose-1="0 0 0 0 0 0 0 0 0 0"
    ascent="800"
    descent="-200"
    x-height="496"
    cap-height="668"
    bbox="-70 -252 1399 911"
    underline-thickness="57"
    underline-position="-107"
    stemh="118"
    stemv="128"
    unicode-range="U+000D-25CA"
  />
<missing-glyph horiz-adv-x="527" 
d="M50 0v700h427v-700h-427zM79 21h370l-185 308zM71 49l180 301l-180 300v-601zM457 47v605l-181 -302zM263 371l186 309h-371z" />
    <glyph glyph-name=".notdef" horiz-adv-x="527" 
d="M50 0v700h427v-700h-427zM79 21h370l-185 308zM71 49l180 301l-180 300v-601zM457 47v605l-181 -302zM263 371l186 309h-371z" />
    <glyph glyph-name="NULL" horiz-adv-x="0" 
 />
    <glyph glyph-name="uni000D" unicode="&#xd;" horiz-adv-x="0" 
 />
    <glyph glyph-name="space" unicode=" " horiz-adv-x="320" 
 />
    <glyph glyph-name="zero" unicode="0" horiz-adv-x="652" 
d="M45 335c0 214 99 345 286 345c188 0 287 -131 287 -345c0 -213 -99 -347 -287 -347c-187 0 -286 134 -286 347zM209 431c-5 -28 -8 -59 -8 -96c0 -161 53 -234 130 -234c32 0 60 12 81 38zM331 567c-30 0 -56 -11 -77 -33l201 -288c4 26 6 56 6 88
c0 162 -52 233 -130 233z" />
    <glyph glyph-name="one" unicode="1" horiz-adv-x="448" 
d="M47 448v123c105 0 152 7 188 97h115v-668h-151v448h-152z" />
    <glyph glyph-name="one" unicode="&#xe920;" horiz-adv-x="448" 
d="M47 448v123c105 0 152 7 188 97h115v-668h-151v448h-152z" />
    <glyph glyph-name="two" unicode="2" horiz-adv-x="586" 
d="M34 125l43 31c113 79 314 219 314 332c0 52 -43 79 -92 79c-42 0 -87 -20 -102 -82l-138 50c36 93 129 145 247 145c136 0 238 -70 238 -195c0 -135 -120 -246 -316 -360h319v-125h-513v125z" />
    <glyph glyph-name="three" unicode="3" horiz-adv-x="605" 
d="M33 140l138 50c17 -65 69 -89 124 -89c63 0 103 32 103 87c0 82 -87 103 -187 103v106c115 0 179 33 179 92c0 52 -49 78 -104 78c-49 0 -96 -21 -109 -82l-137 50c39 102 145 145 255 145c122 0 248 -53 248 -173c0 -72 -46 -128 -93 -155c66 -25 104 -96 104 -157
c0 -139 -126 -207 -263 -207c-113 0 -217 46 -258 152z" />
    <glyph glyph-name="four" unicode="4" horiz-adv-x="626" 
d="M23 252l325 416h152v-393h92v-134h-92v-141h-152v141h-325v111zM348 469l-160 -194h160v194z" />
    <glyph glyph-name="five" unicode="5" horiz-adv-x="612" 
d="M295 -12c-116 0 -212 52 -254 151l132 48c19 -65 65 -86 114 -86c70 0 121 42 121 120c0 82 -56 120 -118 120c-49 0 -87 -23 -110 -65l-135 50l42 342h447v-124h-321l-15 -125c31 22 86 35 133 35c119 0 234 -78 234 -233c0 -153 -126 -233 -270 -233z" />
    <glyph glyph-name="six" unicode="6" 
d="M51 322c0 192 82 358 289 358c101 0 169 -39 204 -97l-136 -49c-13 23 -43 36 -78 36c-71 0 -120 -53 -120 -167c33 30 77 49 143 49c120 0 228 -97 228 -235c0 -139 -109 -229 -260 -229c-191 0 -270 145 -270 334zM212 220c0 -72 42 -119 108 -119c65 0 105 47 105 118
c0 70 -40 119 -106 119c-64 0 -107 -46 -107 -118z" />
    <glyph glyph-name="seven" unicode="7" horiz-adv-x="543" 
d="M258 0h-175l271 543h-339v125h500v-125z" />
    <glyph glyph-name="eight" unicode="8" horiz-adv-x="625" 
d="M313 -12c-157 0 -275 77 -275 219c0 81 39 129 114 170c-20 32 -32 69 -32 110c0 106 79 193 193 193s192 -87 192 -193c0 -41 -12 -78 -33 -109c75 -42 115 -90 115 -172c0 -141 -118 -218 -274 -218zM195 206c0 -55 48 -92 118 -92c68 0 117 38 117 92
c0 56 -49 88 -117 88c-70 0 -118 -32 -118 -88zM313 555c-38 0 -69 -30 -69 -69c0 -38 31 -69 69 -69c37 0 67 31 67 69c0 39 -29 69 -67 69z" />
    <glyph glyph-name="nine" unicode="9" horiz-adv-x="561" 
d="M38 441c0 131 106 238 237 238c132 0 241 -108 241 -240c0 -35 -8 -70 -24 -104l-162 -335h-160l108 202c-132 0 -240 105 -240 239zM173 431c5 -55 52 -96 105 -96c57 0 104 47 104 104c0 2 0 4 -1 6v5c-6 54 -51 94 -104 94h-9c-55 -5 -95 -51 -95 -104v-9z" />
    <glyph glyph-name="A" unicode="A" horiz-adv-x="690" 
d="M5 0l253 668h174l253 -668h-172l-40 119h-256l-40 -119h-172zM344 501l-84 -254h170z" />
    <glyph glyph-name="B" unicode="B" horiz-adv-x="647" 
d="M44 668h292c145 0 254 -34 254 -174c0 -61 -29 -108 -79 -139c62 -21 106 -68 106 -149c0 -150 -108 -206 -270 -206h-303v668zM348 282h-146v-151h146c68 0 102 29 102 76s-34 75 -102 75zM341 539h-139v-135h139c53 0 85 27 85 68c0 42 -32 67 -85 67z" />
    <glyph glyph-name="C" unicode="C" horiz-adv-x="681" 
d="M369 -12c-208 0 -334 133 -334 346c0 211 131 346 338 346c126 0 223 -61 274 -155l-140 -51c-30 54 -85 76 -139 76c-93 0 -166 -80 -166 -216c0 -140 73 -216 168 -216c50 0 111 17 142 75l139 -51c-54 -95 -156 -154 -282 -154z" />
    <glyph glyph-name="D" unicode="D" horiz-adv-x="682" 
d="M264 0h-220v668h220c218 0 387 -80 387 -334c0 -255 -169 -334 -387 -334zM202 133h65c115 0 221 25 221 201s-106 203 -221 203h-65v-404z" />
    <glyph glyph-name="E" unicode="E" horiz-adv-x="580" 
d="M44 0v668h514v-139h-356v-116h217v-139h-217v-135h356v-139h-514z" />
    <glyph glyph-name="F" unicode="F" horiz-adv-x="544" 
d="M44 0v668h478v-139h-320v-116h320v-139h-320v-274h-158z" />
    <glyph glyph-name="G" unicode="G" horiz-adv-x="719" 
d="M352 -12c-196 0 -317 135 -317 348c0 211 138 344 340 344c117 0 216 -47 269 -138l-136 -56c-22 35 -66 64 -135 64c-95 0 -171 -73 -171 -214c0 -140 70 -218 174 -218c73 0 149 28 149 113v19h-150v128h308v-378h-104l-22 74c-43 -58 -109 -86 -205 -86z" />
    <glyph glyph-name="H" unicode="H" horiz-adv-x="679" 
d="M202 0h-158v668h158v-255h275v255h158v-668h-158v274h-275v-274z" />
    <glyph glyph-name="I" unicode="I" horiz-adv-x="458" 
d="M151 544h-94v124h344v-124h-92v-420h92v-124h-344v124h94v420z" />
    <glyph glyph-name="J" unicode="J" horiz-adv-x="560" 
d="M255 -12c-140 0 -222 74 -250 187l145 53c11 -57 42 -115 105 -115c66 0 103 36 103 143v412h158v-412c0 -167 -90 -268 -261 -268z" />
    <glyph glyph-name="K" unicode="K" horiz-adv-x="659" 
d="M44 668h158v-265l241 265h193l-264 -286l277 -382h-183l-196 272l-68 -75v-197h-158v668z" />
    <glyph glyph-name="L" unicode="L" horiz-adv-x="537" 
d="M202 139h320v-139h-478v668h158v-529z" />
    <glyph glyph-name="M" unicode="M" horiz-adv-x="842" 
d="M44 668h237l139 -479l141 479h237v-668h-154v525l-159 -525h-130l-158 525v-525h-153v668z" />
    <glyph glyph-name="N" unicode="N" horiz-adv-x="700" 
d="M44 668h201l258 -476v476h153v-668h-202l-258 476v-476h-152v668z" />
    <glyph glyph-name="O" unicode="O" horiz-adv-x="764" 
d="M35 334c0 208 141 346 346 346s348 -138 348 -346s-143 -346 -348 -346s-346 138 -346 346zM202 334c0 -142 82 -216 179 -216c98 0 180 74 180 216s-82 216 -180 216c-97 0 -179 -74 -179 -216z" />
    <glyph glyph-name="P" unicode="P" horiz-adv-x="634" 
d="M202 0h-158v668h257c173 0 303 -43 303 -218s-130 -218 -303 -218h-99v-232zM202 535v-172h104c73 0 131 16 131 87c0 70 -58 85 -131 85h-104z" />
    <glyph glyph-name="Q" unicode="Q" horiz-adv-x="781" 
d="M381 -12c-205 0 -346 138 -346 346s141 346 346 346s348 -138 348 -346c0 -77 -20 -145 -55 -199l107 -101l-83 -89l-109 103c-56 -39 -127 -60 -208 -60zM381 550c-97 0 -179 -74 -179 -216s82 -216 179 -216c37 0 72 11 100 31l-143 136l83 87l129 -121
c8 25 11 52 11 83c0 142 -82 216 -180 216z" />
    <glyph glyph-name="R" unicode="R" horiz-adv-x="654" 
d="M202 0h-158v668h257c173 0 303 -41 303 -207c0 -76 -34 -158 -161 -192l194 -269h-183l-181 252h-71v-252zM202 535v-151h104c74 0 131 13 131 75s-57 76 -131 76h-104z" />
    <glyph glyph-name="S" unicode="S" horiz-adv-x="619" 
d="M25 157l144 52c18 -64 72 -94 146 -94c57 0 119 18 119 70c0 47 -50 70 -122 84l-81 16c-109 21 -203 74 -203 188c0 143 149 207 283 207c108 0 214 -42 256 -145l-143 -52c-18 45 -64 70 -127 70c-61 0 -107 -23 -107 -64c0 -34 30 -59 76 -68l90 -18
c108 -22 240 -56 240 -194c0 -142 -144 -221 -282 -221c-146 0 -248 62 -289 169z" />
    <glyph glyph-name="T" unicode="T" horiz-adv-x="617" 
d="M230 529h-215v139h587v-139h-215v-529h-157v529z" />
    <glyph glyph-name="U" unicode="U" horiz-adv-x="657" 
d="M41 292v376h158v-389c0 -99 19 -162 130 -162c110 0 129 63 129 162v389h158v-376c0 -206 -80 -304 -287 -304c-209 0 -288 98 -288 304z" />
    <glyph glyph-name="V" unicode="V" horiz-adv-x="656" 
d="M236 0l-226 668h164l153 -491l154 491h165l-227 -668h-183z" />
    <glyph glyph-name="W" unicode="W" horiz-adv-x="883" 
d="M171 0l-161 668h158l93 -463l98 463h164l99 -463l93 463h158l-161 -668h-169l-102 470l-101 -470h-169z" />
    <glyph glyph-name="X" unicode="X" horiz-adv-x="699" 
d="M200 0h-190l245 343l-231 325h189l136 -192l137 192h189l-231 -325l245 -343h-190l-150 211z" />
    <glyph glyph-name="Y" unicode="Y" horiz-adv-x="687" 
d="M265 260l-255 408h184l149 -257l149 257h185l-255 -408v-260h-157v260z" />
    <glyph glyph-name="Z" unicode="Z" horiz-adv-x="621" 
d="M574 547l-334 -408h349v-139h-557v121l337 408h-322v139h527v-121z" />
    <glyph glyph-name="a" unicode="a" horiz-adv-x="548" 
d="M19 134c0 121 137 162 329 176v19c0 57 -30 78 -83 78c-42 0 -76 -19 -86 -59l-128 46c33 66 113 116 227 116c141 0 220 -57 220 -207v-109c0 -65 7 -151 17 -194h-141l-18 60c-37 -52 -95 -72 -166 -72c-94 0 -171 56 -171 146zM351 220c-105 -9 -175 -23 -175 -75
c0 -32 30 -53 70 -53c60 0 105 25 105 116v12z" />
    <glyph glyph-name="b" unicode="b" horiz-adv-x="596" 
d="M50 668h152v-240c32 55 98 82 151 82c128 0 219 -96 219 -258s-91 -264 -219 -264c-53 0 -119 24 -151 79l-19 -67h-133v668zM195 249c0 -103 50 -143 110 -143c59 0 109 54 109 146c0 91 -50 140 -109 140c-60 0 -110 -42 -110 -143z" />
    <glyph glyph-name="c" unicode="c" horiz-adv-x="520" 
d="M278 -12c-164 0 -254 106 -254 263c0 156 103 259 254 259c85 0 178 -32 224 -130l-127 -46c-16 42 -50 58 -88 58c-55 0 -108 -37 -108 -142c0 -108 54 -144 108 -144c42 0 72 18 89 47l124 -45c-51 -90 -143 -120 -222 -120z" />
    <glyph glyph-name="d" unicode="d" horiz-adv-x="596" 
d="M243 -12c-128 0 -219 102 -219 264s91 258 219 258c54 0 119 -27 151 -82v240h152v-474c0 -50 3 -121 17 -194h-145l-20 67c-42 -57 -101 -79 -155 -79zM292 392c-60 0 -110 -49 -110 -140c0 -92 50 -146 110 -146c59 0 109 40 109 143c0 101 -50 143 -109 143z" />
    <glyph glyph-name="e" unicode="e" horiz-adv-x="566" 
d="M24 251c0 158 121 259 266 259c163 0 264 -125 254 -300h-367c5 -70 59 -104 115 -104c47 0 81 15 100 37l121 -44c-52 -76 -136 -111 -217 -111c-161 0 -272 99 -272 263zM294 397c-57 0 -108 -29 -117 -97h226c-2 64 -50 97 -109 97z" />
    <glyph glyph-name="f" unicode="f" horiz-adv-x="367" 
d="M5 380v116h82v81c0 118 57 151 191 151h69v-120h-42c-54 0 -66 -7 -66 -45v-67h108v-116h-108v-380h-152v380h-82z" />
    <glyph glyph-name="g" unicode="g" horiz-adv-x="597" 
d="M24 259c0 173 106 252 209 252c63 0 124 -29 162 -83l20 68h131v-459c0 -167 -98 -240 -253 -240c-82 0 -174 27 -220 118l124 45c18 -36 57 -47 92 -47c61 0 106 26 106 94v89c-43 -53 -101 -78 -157 -78c-108 0 -214 90 -214 241zM182 267c0 -88 50 -131 110 -131
c59 0 109 30 109 127s-50 129 -109 129c-60 0 -110 -38 -110 -125z" />
    <glyph glyph-name="h" unicode="h" horiz-adv-x="572" 
d="M202 0h-152v668h152v-238c22 37 77 80 153 80c128 0 167 -74 167 -208v-302h-152v264c0 70 -3 128 -76 128c-64 0 -92 -47 -92 -137v-255z" />
    <glyph glyph-name="i" unicode="i" horiz-adv-x="315" 
d="M24 380v116h247v-496h-153v380h-94zM195 578c-50 0 -90 41 -90 90c0 50 40 90 90 90s90 -40 90 -90c0 -49 -40 -90 -90 -90z" />
    <glyph glyph-name="j" unicode="j" horiz-adv-x="259" 
d="M-70 -41h59c52 0 66 6 66 39v498h152v-520c0 -113 -81 -137 -190 -137h-87v120zM42 668c0 50 40 90 90 90c49 0 90 -40 90 -90c0 -49 -41 -90 -90 -90c-50 0 -90 41 -90 90z" />
    <glyph glyph-name="k" unicode="k" horiz-adv-x="567" 
d="M50 668h152v-360l166 188h180l-194 -207l209 -289h-180l-129 180l-52 -55v-125h-152v668z" />
    <glyph glyph-name="l" unicode="l" horiz-adv-x="314" 
d="M50 140v528h152v-488c0 -47 15 -56 66 -56h43v-124h-97c-122 0 -164 23 -164 140z" />
    <glyph glyph-name="m" unicode="m" horiz-adv-x="886" 
d="M202 0h-152v496h133l19 -66c22 37 76 80 150 80c79 0 124 -29 147 -83c38 55 100 83 170 83c127 0 167 -74 167 -208v-302h-152v264c0 70 -4 128 -77 128c-62 0 -88 -43 -88 -130v-262h-153v264c0 70 -3 128 -74 128c-63 0 -90 -47 -90 -133v-259z" />
    <glyph glyph-name="n" unicode="n" horiz-adv-x="572" 
d="M50 496h133l19 -66c22 37 77 80 153 80c128 0 167 -74 167 -208v-302h-152v264c0 70 -3 128 -76 128c-64 0 -92 -47 -92 -137v-255h-152v496z" />
    <glyph glyph-name="o" unicode="o" horiz-adv-x="573" 
d="M24 250c0 179 125 260 263 260c136 0 262 -81 262 -260s-126 -262 -262 -262c-138 0 -263 83 -263 262zM287 392c-60 0 -108 -37 -108 -142c0 -104 46 -144 108 -144c61 0 107 40 107 144c0 105 -48 142 -107 142z" />
    <glyph glyph-name="p" unicode="p" horiz-adv-x="596" 
d="M202 -161h-152v657h132l20 -68c32 55 98 82 151 82c128 0 219 -101 219 -262c0 -163 -91 -260 -219 -260c-53 0 -119 28 -151 83v-232zM195 251c0 -102 50 -145 110 -145c59 0 109 49 109 142c0 91 -50 144 -109 144c-60 0 -110 -39 -110 -141z" />
    <glyph glyph-name="q" unicode="q" horiz-adv-x="601" 
d="M243 -12c-128 0 -219 97 -219 260c0 161 91 262 219 262c54 0 119 -27 151 -82l20 68h132v-458c0 -41 3 -72 58 -72c18 0 41 3 70 10v-131c-21 -7 -64 -17 -111 -17c-80 0 -169 30 -169 162v80c-32 -54 -97 -82 -151 -82zM292 392c-60 0 -110 -53 -110 -144
c0 -93 50 -142 110 -142c59 0 109 43 109 145s-50 141 -109 141z" />
    <glyph glyph-name="r" unicode="r" horiz-adv-x="372" 
d="M202 0h-152v496h120l27 -91c31 80 84 109 160 105v-152c-16 2 -27 3 -41 3c-74 0 -114 -32 -114 -111v-250z" />
    <glyph glyph-name="s" unicode="s" horiz-adv-x="534" 
d="M264 -12c-116 0 -205 43 -243 126l129 47c15 -42 60 -62 117 -62c49 0 94 15 94 46c0 21 -20 35 -77 45l-89 15c-96 16 -162 65 -162 148c0 104 105 157 228 157c95 0 183 -32 220 -110l-128 -47c-10 36 -48 46 -93 46c-54 0 -82 -14 -82 -40c0 -20 17 -32 61 -40l92 -17
c120 -22 176 -57 176 -140c0 -117 -110 -174 -243 -174z" />
    <glyph glyph-name="t" unicode="t" horiz-adv-x="379" 
d="M13 380v116h82v124h152v-124h108v-116h-108v-200c0 -47 15 -56 64 -56h44v-124h-96c-122 0 -164 23 -164 140v240h-82z" />
    <glyph glyph-name="u" unicode="u" horiz-adv-x="570" 
d="M50 496h152v-260c0 -71 2 -130 76 -130c64 0 88 37 88 129v261h153v-496h-132l-21 70c-29 -49 -68 -82 -144 -82c-132 0 -172 75 -172 210v298z" />
    <glyph glyph-name="v" unicode="v" horiz-adv-x="526" 
d="M177 0l-177 496h157l106 -338l106 338h157l-178 -496h-171z" />
    <glyph glyph-name="w" unicode="w" horiz-adv-x="723" 
d="M124 0l-124 496h150l75 -336l64 336h144l64 -336l75 336h151l-124 -496h-166l-72 356l-71 -356h-166z" />
    <glyph glyph-name="x" unicode="x" horiz-adv-x="533" 
d="M166 0h-166l184 259l-169 237h166l86 -121l85 121h166l-169 -237l184 -259h-166l-100 143z" />
    <glyph glyph-name="y" unicode="y" horiz-adv-x="518" 
d="M0 496h163l97 -310l95 310h163l-190 -496c-48 -126 -85 -161 -214 -161h-49v110h30c64 0 75 3 90 41l5 13z" />
    <glyph glyph-name="z" unicode="z" horiz-adv-x="516" 
d="M226 121h270v-121h-466v121l257 254h-243v121h438v-121z" />
    <glyph glyph-name="uni00A0" unicode="&#xa0;" horiz-adv-x="320" 
 />
    <glyph glyph-name="circumflex" unicode="&#x2c6;" horiz-adv-x="467" 
d="M166 574h-129l147 132c13 12 31 20 50 20s36 -8 50 -20l146 -132h-128l-68 61z" />
    <glyph glyph-name="circumflex" unicode="&#xe998;" horiz-adv-x="467" 
d="M166 574h-129l147 132c13 12 31 20 50 20s36 -8 50 -20l146 -132h-128l-68 61z" />
    <glyph glyph-name="caron" unicode="&#x2c7;" horiz-adv-x="467" 
d="M37 720h129l68 -61l68 61h128l-146 -133c-14 -12 -31 -19 -50 -19s-37 7 -50 19z" />
    <glyph glyph-name="caron" unicode="&#xe999;" horiz-adv-x="467" 
d="M37 720h129l68 -61l68 61h128l-146 -133c-14 -12 -31 -19 -50 -19s-37 7 -50 19z" />
    <glyph glyph-name="breve" unicode="&#x2d8;" horiz-adv-x="373" 
d="M57 689h85c5 -21 28 -43 58 -43s54 22 59 43h85c-12 -68 -72 -120 -144 -120c-71 0 -131 52 -143 120z" />
    <glyph glyph-name="breve" unicode="&#xe99b;" horiz-adv-x="373" 
d="M57 689h85c5 -21 28 -43 58 -43s54 22 59 43h85c-12 -68 -72 -120 -144 -120c-71 0 -131 52 -143 120z" />
    <glyph glyph-name="dotaccent" unicode="&#x2d9;" horiz-adv-x="201" 
d="M30 648c0 39 32 71 71 71s70 -32 70 -71s-31 -70 -70 -70s-71 31 -71 70z" />
    <glyph glyph-name="dotaccent" unicode="&#xe99c;" horiz-adv-x="201" 
d="M30 648c0 39 32 71 71 71s70 -32 70 -71s-31 -70 -70 -70s-71 31 -71 70z" />
    <glyph glyph-name="ring" unicode="&#x2da;" horiz-adv-x="295" 
d="M147 535c-73 0 -132 60 -132 133s59 132 132 132s133 -59 133 -132s-60 -133 -133 -133zM100 668c0 -26 21 -47 47 -47s47 21 47 47s-21 47 -47 47s-47 -21 -47 -47z" />
    <glyph glyph-name="ogonek" unicode="&#x2db;" horiz-adv-x="295" 
d="M179 -174c-108 0 -142 51 -142 89c0 46 41 73 80 85h141c-46 -23 -95 -44 -95 -68s24 -30 46 -30c20 0 41 7 49 9v-75c-15 -5 -54 -10 -79 -10z" />
    <glyph glyph-name="ogonek" unicode="&#xe99e;" horiz-adv-x="295" 
d="M179 -174c-108 0 -142 51 -142 89c0 46 41 73 80 85h141c-46 -23 -95 -44 -95 -68s24 -30 46 -30c20 0 41 7 49 9v-75c-15 -5 -54 -10 -79 -10z" />
    <glyph glyph-name="quoteleft" unicode="&#x2018;" horiz-adv-x="277" 
d="M41 437c0 12 3 24 7 35l76 196h90l-53 -137c43 -10 75 -48 75 -94c0 -54 -44 -98 -97 -98c-54 0 -98 44 -98 98z" />
    <glyph glyph-name="quoteleft" unicode="&#xe9a3;" horiz-adv-x="277" 
d="M41 437c0 12 3 24 7 35l76 196h90l-53 -137c43 -10 75 -48 75 -94c0 -54 -44 -98 -97 -98c-54 0 -98 44 -98 98z" />
    <glyph glyph-name="quoteright" unicode="&#x2019;" horiz-adv-x="277" 
d="M116 487c-43 11 -75 49 -75 95c0 54 44 98 98 98c53 0 97 -44 97 -98c0 -12 -2 -24 -6 -35l-77 -196h-90z" />
    <glyph glyph-name="quoteright" unicode="&#xe9a4;" horiz-adv-x="277" 
d="M116 487c-43 11 -75 49 -75 95c0 54 44 98 98 98c53 0 97 -44 97 -98c0 -12 -2 -24 -6 -35l-77 -196h-90z" />
    <glyph glyph-name="quotesinglbase" unicode="&#x201a;" horiz-adv-x="277" 
d="M116 -9c-43 10 -75 49 -75 95c0 54 44 98 98 98c53 0 97 -44 97 -98c0 -12 -2 -24 -6 -35l-77 -197h-90z" />
    <glyph glyph-name="quotesinglbase" unicode="&#xe9a5;" horiz-adv-x="277" 
d="M116 -9c-43 10 -75 49 -75 95c0 54 44 98 98 98c53 0 97 -44 97 -98c0 -12 -2 -24 -6 -35l-77 -197h-90z" />
    <glyph glyph-name="quotedblleft" unicode="&#x201c;" horiz-adv-x="498" 
d="M41 437c0 12 3 24 7 35l76 196h90l-53 -137c43 -10 75 -48 75 -94c0 -54 -44 -98 -97 -98c-54 0 -98 44 -98 98zM263 437c0 12 3 24 7 35l75 196h91l-54 -137c43 -10 75 -48 75 -94c0 -54 -43 -98 -97 -98c-53 0 -97 44 -97 98z" />
    <glyph glyph-name="quotedblleft" unicode="&#xe9a6;" horiz-adv-x="498" 
d="M41 437c0 12 3 24 7 35l76 196h90l-53 -137c43 -10 75 -48 75 -94c0 -54 -44 -98 -97 -98c-54 0 -98 44 -98 98zM263 437c0 12 3 24 7 35l75 196h91l-54 -137c43 -10 75 -48 75 -94c0 -54 -43 -98 -97 -98c-53 0 -97 44 -97 98z" />
    <glyph glyph-name="quotedblright" unicode="&#x201d;" horiz-adv-x="498" 
d="M41 582c0 54 44 98 98 98c53 0 97 -44 97 -98c0 -12 -2 -24 -6 -35l-77 -196h-90l53 136c-43 11 -75 49 -75 95zM263 582c0 54 44 98 97 98c54 0 97 -44 97 -98c0 -12 -2 -24 -6 -35l-77 -196h-89l53 136c-43 11 -75 49 -75 95z" />
    <glyph glyph-name="quotedblright" unicode="&#xe9a7;" horiz-adv-x="498" 
d="M41 582c0 54 44 98 98 98c53 0 97 -44 97 -98c0 -12 -2 -24 -6 -35l-77 -196h-90l53 136c-43 11 -75 49 -75 95zM263 582c0 54 44 98 97 98c54 0 97 -44 97 -98c0 -12 -2 -24 -6 -35l-77 -196h-89l53 136c-43 11 -75 49 -75 95z" />
    <glyph glyph-name="quotedblbase" unicode="&#x201e;" horiz-adv-x="498" 
d="M41 86c0 54 44 98 98 98c53 0 97 -44 97 -98c0 -12 -2 -24 -6 -35l-77 -197h-90l53 137c-43 10 -75 49 -75 95zM263 86c0 54 44 98 97 98c54 0 97 -44 97 -98c0 -12 -2 -24 -6 -35l-77 -197h-89l53 137c-43 10 -75 49 -75 95z" />
    <glyph glyph-name="quotedblbase" unicode="&#xe9a8;" horiz-adv-x="498" 
d="M41 86c0 54 44 98 98 98c53 0 97 -44 97 -98c0 -12 -2 -24 -6 -35l-77 -197h-90l53 137c-43 10 -75 49 -75 95zM263 86c0 54 44 98 97 98c54 0 97 -44 97 -98c0 -12 -2 -24 -6 -35l-77 -197h-89l53 137c-43 10 -75 49 -75 95z" />
    <glyph glyph-name="dagger" unicode="&#x2020;" horiz-adv-x="594" 
d="M225 380h-184v116h184v172h144v-172h184v-116h-184v-380h-144v380z" />
    <glyph glyph-name="dagger" unicode="&#xe9a9;" horiz-adv-x="594" 
d="M225 380h-184v116h184v172h144v-172h184v-116h-184v-380h-144v380z" />
    <glyph glyph-name="daggerdbl" unicode="&#x2021;" horiz-adv-x="594" 
d="M41 380v116h184v172h144v-172h184v-116h-184v-92h184v-115h-184v-173h-144v173h-184v115h184v92h-184z" />
    <glyph glyph-name="daggerdbl" unicode="&#xe9aa;" horiz-adv-x="594" 
d="M41 380v116h184v172h144v-172h184v-116h-184v-92h184v-115h-184v-173h-144v173h-184v115h184v92h-184z" />
    <glyph glyph-name="bullet" unicode="&#x2022;" horiz-adv-x="438" 
d="M53 254c0 92 74 166 166 166s166 -74 166 -166c0 -91 -74 -166 -166 -166s-166 75 -166 166z" />
    <glyph glyph-name="ellipsis" unicode="&#x2026;" horiz-adv-x="803" 
d="M567 86c0 54 44 98 98 98s97 -44 97 -98s-43 -98 -97 -98s-98 44 -98 98zM41 86c0 54 44 98 98 98c53 0 97 -44 97 -98s-44 -98 -97 -98c-54 0 -98 44 -98 98zM305 86c0 54 42 98 96 98s98 -44 98 -98s-44 -98 -98 -98s-96 44 -96 98z" />
    <glyph glyph-name="ellipsis" unicode="&#xe9ac;" horiz-adv-x="803" 
d="M567 86c0 54 44 98 98 98s97 -44 97 -98s-43 -98 -97 -98s-98 44 -98 98zM41 86c0 54 44 98 98 98c53 0 97 -44 97 -98s-44 -98 -97 -98c-54 0 -98 44 -98 98zM305 86c0 54 42 98 96 98s98 -44 98 -98s-44 -98 -98 -98s-96 44 -96 98z" />
    <glyph glyph-name="perthousand" unicode="&#x2030;" horiz-adv-x="1440" 
d="M773 -12c-109 0 -197 89 -197 198s88 196 197 196s197 -87 197 -196s-88 -198 -197 -198zM1005 186c0 109 88 196 197 196s197 -87 197 -196s-88 -198 -197 -198s-197 89 -197 198zM238 286c-109 0 -197 88 -197 197s88 197 197 197c108 0 197 -88 197 -197
s-89 -197 -197 -197zM335 0h-126l467 668h127zM694 186c0 -44 36 -79 79 -79s79 35 79 79c0 43 -36 78 -79 78s-79 -35 -79 -78zM1123 186c0 -44 35 -79 79 -79c43 0 78 35 78 79c0 43 -35 78 -78 78c-44 0 -79 -35 -79 -78zM160 483c0 -44 35 -79 78 -79c44 0 79 35 79 79
c0 43 -35 78 -79 78c-43 0 -78 -35 -78 -78z" />
    <glyph glyph-name="perthousand" unicode="&#xe9ad;" horiz-adv-x="1440" 
d="M773 -12c-109 0 -197 89 -197 198s88 196 197 196s197 -87 197 -196s-88 -198 -197 -198zM1005 186c0 109 88 196 197 196s197 -87 197 -196s-88 -198 -197 -198s-197 89 -197 198zM238 286c-109 0 -197 88 -197 197s88 197 197 197c108 0 197 -88 197 -197
s-89 -197 -197 -197zM335 0h-126l467 668h127zM694 186c0 -44 36 -79 79 -79s79 35 79 79c0 43 -36 78 -79 78s-79 -35 -79 -78zM1123 186c0 -44 35 -79 79 -79c43 0 78 35 78 79c0 43 -35 78 -78 78c-44 0 -79 -35 -79 -78zM160 483c0 -44 35 -79 78 -79c44 0 79 35 79 79
c0 43 -35 78 -79 78c-43 0 -78 -35 -78 -78z" />
    <glyph glyph-name="guilsinglleft" unicode="&#x2039;" horiz-adv-x="404" 
d="M363 40h-174l-148 210l148 211h173l-148 -211z" />
    <glyph glyph-name="guilsinglleft" unicode="&#xe9ae;" horiz-adv-x="404" 
d="M363 40h-174l-148 210l148 211h173l-148 -211z" />
    <glyph glyph-name="guilsinglright" unicode="&#x203a;" horiz-adv-x="404" 
d="M216 40h-175l150 209l-149 211h174l147 -211z" />
    <glyph glyph-name="guilsinglright" unicode="&#xe9af;" horiz-adv-x="404" 
d="M216 40h-175l150 209l-149 211h174l147 -211z" />
    <glyph glyph-name="fraction" unicode="&#x2044;" horiz-adv-x="624" 
d="M483 668h126l-467 -668h-127z" />
    <glyph glyph-name="fraction" unicode="&#xe9b0;" horiz-adv-x="624" 
d="M483 668h126l-467 -668h-127z" />
    <glyph glyph-name="ordfeminine" unicode="&#xaa;" horiz-adv-x="395" 
d="M160 395c-69 0 -107 45 -107 96c0 27 10 47 26 59c28 22 81 29 124 34l35 4v6c0 20 -13 29 -40 29c-18 0 -35 -5 -39 -24l-87 31c20 41 68 61 138 61c85 0 127 -33 127 -113v-60c0 -35 0 -74 5 -115h-84l-9 32c-14 -23 -41 -40 -89 -40zM157 495c0 -15 10 -28 33 -28
c28 0 50 15 50 42v17l-37 -3c-36 -3 -46 -14 -46 -28z" />
    <glyph glyph-name="ordfeminine" unicode="&#xe93d;" horiz-adv-x="395" 
d="M160 395c-69 0 -107 45 -107 96c0 27 10 47 26 59c28 22 81 29 124 34l35 4v6c0 20 -13 29 -40 29c-18 0 -35 -5 -39 -24l-87 31c20 41 68 61 138 61c85 0 127 -33 127 -113v-60c0 -35 0 -74 5 -115h-84l-9 32c-14 -23 -41 -40 -89 -40zM157 495c0 -15 10 -28 33 -28
c28 0 50 15 50 42v17l-37 -3c-36 -3 -46 -14 -46 -28z" />
    <glyph glyph-name="guillemotleft" unicode="&#xab;" horiz-adv-x="669" 
d="M294 251l146 210h175l-149 -210l150 -211h-176zM53 251l148 210h173l-148 -210l149 -211h-174z" />
    <glyph glyph-name="guillemotleft" unicode="&#xe93e;" horiz-adv-x="669" 
d="M294 251l146 210h175l-149 -210l150 -211h-176zM53 251l148 210h173l-148 -210l149 -211h-174z" />
    <glyph glyph-name="logicalnot" unicode="&#xac;" horiz-adv-x="618" 
d="M53 422h512v-366h-128v239h-384v127z" />
    <glyph glyph-name="logicalnot" unicode="&#xe93f;" horiz-adv-x="618" 
d="M53 422h512v-366h-128v239h-384v127z" />
    <glyph glyph-name="registered" unicode="&#xae;" horiz-adv-x="798" 
d="M53 334c0 190 155 345 345 345c192 0 347 -155 347 -345c0 -191 -155 -346 -347 -346c-190 0 -345 155 -345 346zM123 334c0 -153 124 -277 275 -277c153 0 277 124 277 277c0 152 -124 276 -277 276c-151 0 -275 -124 -275 -276zM241 161v368h151c95 0 167 -22 167 -114
c0 -42 -18 -86 -87 -105l107 -149h-108l-101 139h-32v-139h-97zM338 453v-78h52c38 0 68 7 68 39s-30 39 -68 39h-52z" />
    <glyph glyph-name="registered" unicode="&#xe940;" horiz-adv-x="798" 
d="M53 334c0 190 155 345 345 345c192 0 347 -155 347 -345c0 -191 -155 -346 -347 -346c-190 0 -345 155 -345 346zM123 334c0 -153 124 -277 275 -277c153 0 277 124 277 277c0 152 -124 276 -277 276c-151 0 -275 -124 -275 -276zM241 161v368h151c95 0 167 -22 167 -114
c0 -42 -18 -86 -87 -105l107 -149h-108l-101 139h-32v-139h-97zM338 453v-78h52c38 0 68 7 68 39s-30 39 -68 39h-52z" />
    <glyph glyph-name="macron" unicode="&#xaf;" horiz-adv-x="405" 
d="M352 570h-299v98h299v-98z" />
    <glyph glyph-name="degree" unicode="&#xb0;" horiz-adv-x="404" 
d="M40 517c0 89 73 162 162 162c90 0 162 -73 162 -162c0 -90 -72 -163 -162 -163c-89 0 -162 73 -162 163zM202 590c-40 0 -73 -33 -73 -73s33 -73 73 -73c41 0 73 33 73 73s-32 73 -73 73z" />
    <glyph glyph-name="degree" unicode="&#xe941;" horiz-adv-x="404" 
d="M40 517c0 89 73 162 162 162c90 0 162 -73 162 -162c0 -90 -72 -163 -162 -163c-89 0 -162 73 -162 163zM202 590c-40 0 -73 -33 -73 -73s33 -73 73 -73c41 0 73 33 73 73s-32 73 -73 73z" />
    <glyph glyph-name="plusminus" unicode="&#xb1;" horiz-adv-x="618" 
d="M53 391h192v104h128v-104h192v-108h-192v-103h-128v103h-192v108zM565 0h-512v128h512v-128z" />
    <glyph glyph-name="plusminus" unicode="&#xe942;" horiz-adv-x="618" 
d="M53 391h192v104h128v-104h192v-108h-192v-103h-128v103h-192v108zM565 0h-512v128h512v-128z" />
    <glyph glyph-name="twosuperior" unicode="&#xb2;" horiz-adv-x="407" 
d="M53 403v81l36 25c70 47 162 110 162 164c0 24 -19 36 -43 36c-29 0 -48 -18 -53 -43l-91 33c21 56 74 86 149 86c80 0 141 -34 141 -108s-62 -122 -159 -187h158v-87h-300z" />
    <glyph glyph-name="twosuperior" unicode="&#xe943;" horiz-adv-x="407" 
d="M53 403v81l36 25c70 47 162 110 162 164c0 24 -19 36 -43 36c-29 0 -48 -18 -53 -43l-91 33c21 56 74 86 149 86c80 0 141 -34 141 -108s-62 -122 -159 -187h158v-87h-300z" />
    <glyph glyph-name="threesuperior" unicode="&#xb3;" horiz-adv-x="413" 
d="M203 395c-73 0 -126 30 -150 83l91 33c9 -26 33 -39 61 -39c34 0 50 17 50 40c0 29 -25 40 -73 40h-15v84h15c42 0 65 13 65 38s-23 35 -46 35c-24 0 -46 -11 -54 -34l-89 33c23 51 76 77 147 77c84 0 145 -37 145 -102c0 -40 -23 -70 -49 -83c36 -13 59 -46 59 -90
c0 -74 -73 -115 -157 -115z" />
    <glyph glyph-name="threesuperior" unicode="&#xe944;" horiz-adv-x="413" 
d="M203 395c-73 0 -126 30 -150 83l91 33c9 -26 33 -39 61 -39c34 0 50 17 50 40c0 29 -25 40 -73 40h-15v84h15c42 0 65 13 65 38s-23 35 -46 35c-24 0 -46 -11 -54 -34l-89 33c23 51 76 77 147 77c84 0 145 -37 145 -102c0 -40 -23 -70 -49 -83c36 -13 59 -46 59 -90
c0 -74 -73 -115 -157 -115z" />
    <glyph glyph-name="acute" unicode="&#xb4;" horiz-adv-x="314" 
d="M53 574l111 135c4 5 17 18 41 18c32 0 56 -24 56 -56c0 -17 -7 -32 -19 -42l-75 -55h-114z" />
    <glyph glyph-name="acute" unicode="&#xe9cb;" horiz-adv-x="314" 
d="M53 574l111 135c4 5 17 18 41 18c32 0 56 -24 56 -56c0 -17 -7 -32 -19 -42l-75 -55h-114z" />
    <glyph glyph-name="uni03BC" unicode="&#x3bc;" horiz-adv-x="570" 
d="M50 -162v657h152v-265c0 -99 18 -124 75 -124c64 0 89 31 89 124v265h153v-495h-138l-13 43c-22 -39 -56 -55 -89 -55c-28 0 -56 11 -77 30v-180h-152z" />
    <glyph glyph-name="uni03BC" unicode="&#xe945;" horiz-adv-x="570" 
d="M50 -162v657h152v-265c0 -99 18 -124 75 -124c64 0 89 31 89 124v265h153v-495h-138l-13 43c-22 -39 -56 -55 -89 -55c-28 0 -56 11 -77 30v-180h-152z" />
    <glyph glyph-name="paragraph" unicode="&#xb6;" horiz-adv-x="515" 
d="M24 478c0 104 85 189 189 189h282v-67h-47v-762h-95v762h-92v-762h-95v457c-81 21 -142 94 -142 183z" />
    <glyph glyph-name="paragraph" unicode="&#xe946;" horiz-adv-x="515" 
d="M24 478c0 104 85 189 189 189h282v-67h-47v-762h-95v762h-92v-762h-95v457c-81 21 -142 94 -142 183z" />
    <glyph glyph-name="periodcentered" unicode="&#xb7;" horiz-adv-x="301" 
d="M53 248c0 54 44 97 98 97c53 0 97 -43 97 -97s-44 -97 -97 -97c-54 0 -98 43 -98 97z" />
    <glyph glyph-name="periodcentered" unicode="&#xe947;" horiz-adv-x="301" 
d="M53 248c0 54 44 97 98 97c53 0 97 -43 97 -97s-44 -97 -97 -97c-54 0 -98 43 -98 97z" />
    <glyph glyph-name="cedilla" unicode="&#xb8;" horiz-adv-x="321" 
d="M161 -187c-32 0 -63 5 -88 13l16 50c11 -6 37 -13 61 -13s44 7 44 27c0 16 -15 26 -37 26c-8 0 -18 -2 -27 -5c-6 -2 -12 -1 -17 2c-10 5 -14 18 -8 28l52 84l41 -25l-30 -48c9 2 20 3 34 3c38 0 86 -16 86 -62c0 -58 -63 -80 -127 -80z" />
    <glyph glyph-name="cedilla" unicode="&#xe9cd;" horiz-adv-x="321" 
d="M161 -187c-32 0 -63 5 -88 13l16 50c11 -6 37 -13 61 -13s44 7 44 27c0 16 -15 26 -37 26c-8 0 -18 -2 -27 -5c-6 -2 -12 -1 -17 2c-10 5 -14 18 -8 28l52 84l41 -25l-30 -48c9 2 20 3 34 3c38 0 86 -16 86 -62c0 -58 -63 -80 -127 -80z" />
    <glyph glyph-name="onesuperior" unicode="&#xb9;" horiz-adv-x="291" 
d="M53 734c54 0 93 3 106 45h79v-376h-101v244h-84v87z" />
    <glyph glyph-name="onesuperior" unicode="&#xe948;" horiz-adv-x="291" 
d="M53 734c54 0 93 3 106 45h79v-376h-101v244h-84v87z" />
    <glyph glyph-name="ordmasculine" unicode="&#xba;" horiz-adv-x="409" 
d="M57 542c0 101 69 147 152 147s151 -46 151 -147c0 -100 -68 -147 -151 -147s-152 47 -152 147zM209 612c-27 0 -49 -23 -49 -70s22 -70 49 -70c28 0 49 23 49 70s-21 70 -49 70z" />
    <glyph glyph-name="ordmasculine" unicode="&#xe949;" horiz-adv-x="409" 
d="M57 542c0 101 69 147 152 147s151 -46 151 -147c0 -100 -68 -147 -151 -147s-152 47 -152 147zM209 612c-27 0 -49 -23 -49 -70s22 -70 49 -70c28 0 49 23 49 70s-21 70 -49 70z" />
    <glyph glyph-name="guillemotright" unicode="&#xbb;" horiz-adv-x="669" 
d="M442 251l-148 210h174l148 -210l-148 -211h-174zM53 40l150 211l-149 210h174l147 -210l-147 -211h-175z" />
    <glyph glyph-name="guillemotright" unicode="&#xe94a;" horiz-adv-x="669" 
d="M442 251l-148 210h174l148 -210l-148 -211h-174zM53 40l150 211l-149 210h174l147 -210l-147 -211h-175z" />
    <glyph glyph-name="onequarter" unicode="&#xbc;" horiz-adv-x="853" 
d="M110 0l468 667h127l-468 -667h-127zM460 74v78l181 223h101v-214h58v-87h-58v-74h-101v74h-181zM137 535h-84v88c54 0 93 2 106 44h79v-375h-101v243zM563 161h78v95z" />
    <glyph glyph-name="onequarter" unicode="&#xe94b;" horiz-adv-x="853" 
d="M110 0l468 667h127l-468 -667h-127zM460 74v78l181 223h101v-214h58v-87h-58v-74h-101v74h-181zM137 535h-84v88c54 0 93 2 106 44h79v-375h-101v243zM563 161h78v95z" />
    <glyph glyph-name="onehalf" unicode="&#xbd;" horiz-adv-x="856" 
d="M237 0h-127l468 667h127zM502 0v81c67 48 198 125 198 185c0 28 -19 40 -43 40c-30 0 -48 -18 -54 -43l-91 33c21 55 74 85 149 85c80 0 142 -34 142 -107c0 -74 -63 -122 -159 -187h158v-87h-300zM137 535h-84v88c54 0 93 2 106 44h79v-375h-101v243z" />
    <glyph glyph-name="onehalf" unicode="&#xe94c;" horiz-adv-x="856" 
d="M237 0h-127l468 667h127zM502 0v81c67 48 198 125 198 185c0 28 -19 40 -43 40c-30 0 -48 -18 -54 -43l-91 33c21 55 74 85 149 85c80 0 142 -34 142 -107c0 -74 -63 -122 -159 -187h158v-87h-300zM137 535h-84v88c54 0 93 2 106 44h79v-375h-101v243z" />
    <glyph glyph-name="threequarters" unicode="&#xbe;" horiz-adv-x="959" 
d="M200 0l468 667h127l-468 -667h-127zM567 152l181 223h101v-214h57v-87h-57v-74h-101v74h-181v78zM203 290c-73 0 -126 30 -150 82l91 32c9 -25 33 -38 61 -38c34 0 50 17 50 38c0 31 -25 42 -73 42h-15v84h15c42 0 65 13 65 39c0 23 -23 34 -46 34c-24 0 -46 -11 -54 -34
l-89 33c23 50 76 77 150 77c81 0 142 -37 142 -102c0 -40 -23 -70 -49 -83c36 -13 59 -46 59 -90c0 -73 -73 -114 -157 -114zM748 256l-79 -95h79v95z" />
    <glyph glyph-name="threequarters" unicode="&#xe94d;" horiz-adv-x="959" 
d="M200 0l468 667h127l-468 -667h-127zM567 152l181 223h101v-214h57v-87h-57v-74h-101v74h-181v78zM203 290c-73 0 -126 30 -150 82l91 32c9 -25 33 -38 61 -38c34 0 50 17 50 38c0 31 -25 42 -73 42h-15v84h15c42 0 65 13 65 39c0 23 -23 34 -46 34c-24 0 -46 -11 -54 -34
l-89 33c23 50 76 77 150 77c81 0 142 -37 142 -102c0 -40 -23 -70 -49 -83c36 -13 59 -46 59 -90c0 -73 -73 -114 -157 -114zM748 256l-79 -95h79v95z" />
    <glyph glyph-name="less" unicode="&#x3c;" horiz-adv-x="573" 
d="M40 200v99l493 211v-142l-324 -118l324 -120v-142z" />
    <glyph glyph-name="less" unicode="&#xe923;" horiz-adv-x="573" 
d="M40 200v99l493 211v-142l-324 -118l324 -120v-142z" />
    <glyph glyph-name="equal" unicode="=" horiz-adv-x="618" 
d="M53 225h512v-129h-512v129zM565 283h-512v127h512v-127z" />
    <glyph glyph-name="equal" unicode="&#xe924;" horiz-adv-x="618" 
d="M53 225h512v-129h-512v129zM565 283h-512v127h512v-127z" />
    <glyph glyph-name="greater" unicode="&#x3e;" horiz-adv-x="573" 
d="M533 200l-493 -212v142l325 120l-325 118v142l493 -211v-99z" />
    <glyph glyph-name="greater" unicode="&#xe925;" horiz-adv-x="573" 
d="M533 200l-493 -212v142l325 120l-325 118v142l493 -211v-99z" />
    <glyph glyph-name="question" unicode="?" horiz-adv-x="614" 
d="M177 486l-137 50c37 93 137 144 269 144c131 0 255 -54 255 -171c0 -88 -55 -131 -126 -164c-64 -30 -96 -48 -98 -102h-154c0 94 29 132 105 172l38 18c39 17 79 35 79 68s-41 57 -105 57c-59 0 -109 -21 -126 -72zM167 86c0 54 43 97 97 97s97 -43 97 -97
s-43 -98 -97 -98s-97 44 -97 98z" />
    <glyph glyph-name="question" unicode="&#xe926;" horiz-adv-x="614" 
d="M177 486l-137 50c37 93 137 144 269 144c131 0 255 -54 255 -171c0 -88 -55 -131 -126 -164c-64 -30 -96 -48 -98 -102h-154c0 94 29 132 105 172l38 18c39 17 79 35 79 68s-41 57 -105 57c-59 0 -109 -21 -126 -72zM167 86c0 54 43 97 97 97s97 -43 97 -97
s-43 -98 -97 -98s-97 44 -97 98z" />
    <glyph glyph-name="at" unicode="@" horiz-adv-x="754" 
d="M35 334c0 190 155 346 347 346c184 0 337 -143 337 -330v-12c-6 -128 -88 -185 -160 -185c-46 0 -88 23 -105 66c-31 -43 -75 -64 -117 -64c-70 0 -137 56 -137 162c0 152 93 201 194 201c40 0 82 -8 119 -20v-189c0 -46 26 -69 54 -69c33 0 70 31 75 103v13
c0 146 -119 254 -262 254c-154 0 -276 -126 -276 -277c0 -153 125 -275 279 -275c48 0 91 12 133 36v-78c-41 -18 -88 -28 -136 -28c-190 0 -345 155 -345 346zM297 319c0 -46 26 -69 55 -69c32 0 67 30 67 89v84c-11 2 -24 4 -37 4c-42 0 -85 -19 -85 -108z" />
    <glyph glyph-name="at" unicode="&#xe92c;" horiz-adv-x="754" 
d="M35 334c0 190 155 346 347 346c184 0 337 -143 337 -330v-12c-6 -128 -88 -185 -160 -185c-46 0 -88 23 -105 66c-31 -43 -75 -64 -117 -64c-70 0 -137 56 -137 162c0 152 93 201 194 201c40 0 82 -8 119 -20v-189c0 -46 26 -69 54 -69c33 0 70 31 75 103v13
c0 146 -119 254 -262 254c-154 0 -276 -126 -276 -277c0 -153 125 -275 279 -275c48 0 91 12 133 36v-78c-41 -18 -88 -28 -136 -28c-190 0 -345 155 -345 346zM297 319c0 -46 26 -69 55 -69c32 0 67 30 67 89v84c-11 2 -24 4 -37 4c-42 0 -85 -19 -85 -108z" />
    <glyph glyph-name="colon" unicode=":" horiz-adv-x="277" 
d="M139 -12c-54 0 -98 44 -98 98s44 97 98 97c53 0 97 -43 97 -97s-44 -98 -97 -98zM139 316c-54 0 -98 43 -98 96c0 54 44 98 98 98c53 0 97 -44 97 -98c0 -53 -44 -96 -97 -96z" />
    <glyph glyph-name="colon" unicode="&#xe921;" horiz-adv-x="277" 
d="M139 -12c-54 0 -98 44 -98 98s44 97 98 97c53 0 97 -43 97 -97s-44 -98 -97 -98zM139 316c-54 0 -98 43 -98 96c0 54 44 98 98 98c53 0 97 -44 97 -98c0 -53 -44 -96 -97 -96z" />
    <glyph glyph-name="semicolon" unicode=";" horiz-adv-x="277" 
d="M41 86c0 54 44 97 98 97c53 0 97 -43 97 -97c0 -13 -2 -25 -6 -36l-77 -196h-90l53 137c-43 10 -75 49 -75 95zM41 412c0 54 44 98 98 98c53 0 97 -44 97 -98c0 -53 -44 -96 -97 -96c-54 0 -98 43 -98 96z" />
    <glyph glyph-name="semicolon" unicode="&#xe922;" horiz-adv-x="277" 
d="M41 86c0 54 44 97 98 97c53 0 97 -43 97 -97c0 -13 -2 -25 -6 -36l-77 -196h-90l53 137c-43 10 -75 49 -75 95zM41 412c0 54 44 98 98 98c53 0 97 -44 97 -98c0 -53 -44 -96 -97 -96c-54 0 -98 43 -98 96z" />
    <glyph glyph-name="bracketleft" unicode="[" horiz-adv-x="333" 
d="M44 -161v829h256v-116h-128v-598h128v-115h-256z" />
    <glyph glyph-name="bracketleft" unicode="&#xe927;" horiz-adv-x="333" 
d="M44 -161v829h256v-116h-128v-598h128v-115h-256z" />
    <glyph glyph-name="backslash" unicode="\" horiz-adv-x="442" 
d="M168 668l259 -668h-151l-261 668h153z" />
    <glyph glyph-name="backslash" unicode="&#xe928;" horiz-adv-x="442" 
d="M168 668l259 -668h-151l-261 668h153z" />
    <glyph glyph-name="bracketright" unicode="]" horiz-adv-x="333" 
d="M289 -161h-256v115h128v598h-128v116h256v-829z" />
    <glyph glyph-name="bracketright" unicode="&#xe929;" horiz-adv-x="333" 
d="M289 -161h-256v115h128v598h-128v116h256v-829z" />
    <glyph glyph-name="asciicircum" unicode="^" horiz-adv-x="589" 
d="M196 312h-143l185 356h113l185 -356h-143l-98 194z" />
    <glyph glyph-name="asciicircum" unicode="&#xe92a;" horiz-adv-x="589" 
d="M196 312h-143l185 356h113l185 -356h-143l-98 194z" />
    <glyph glyph-name="underscore" unicode="_" horiz-adv-x="430" 
d="M420 -128h-410v128h410v-128z" />
    <glyph glyph-name="underscore" unicode="&#xe92b;" horiz-adv-x="430" 
d="M420 -128h-410v128h410v-128z" />
    <glyph glyph-name="grave" unicode="`" horiz-adv-x="314" 
d="M72 629c-12 12 -19 25 -19 42c0 31 25 57 56 57c15 0 28 -6 38 -15l114 -139h-114z" />
    <glyph glyph-name="grave" unicode="&#xe932;" horiz-adv-x="314" 
d="M72 629c-12 12 -19 25 -19 42c0 31 25 57 56 57c15 0 28 -6 38 -15l114 -139h-114z" />
    <glyph glyph-name="exclam" unicode="!" horiz-adv-x="283" 
d="M44 495v173h194v-173l-42 -252h-111zM142 -12c-54 0 -98 44 -98 98s44 97 98 97c53 0 97 -43 97 -97s-44 -98 -97 -98z" />
    <glyph glyph-name="exclam" unicode="&#xe90f;" horiz-adv-x="283" 
d="M44 495v173h194v-173l-42 -252h-111zM142 -12c-54 0 -98 44 -98 98s44 97 98 97c53 0 97 -43 97 -97s-44 -98 -97 -98z" />
    <glyph glyph-name="quotedbl" unicode="&#x22;" horiz-adv-x="410" 
d="M40 668h142l-14 -234h-114zM228 668h142l-14 -234h-113z" />
    <glyph glyph-name="quotedbl" unicode="&#xe911;" horiz-adv-x="410" 
d="M40 668h142l-14 -234h-114zM228 668h142l-14 -234h-113z" />
    <glyph glyph-name="numbersign" unicode="#" horiz-adv-x="783" 
d="M152 127h-128l20 139h128l20 135h-128l20 140h128l19 127h140l-19 -127h137l19 127h141l-19 -127h129l-21 -139h-128l-19 -135h128l-20 -140h-129l-18 -127h-141l18 127h-136l-18 -127h-141zM313 267h137l19 134h-137z" />
    <glyph glyph-name="numbersign" unicode="&#xe913;" horiz-adv-x="783" 
d="M152 127h-128l20 139h128l20 135h-128l20 140h128l19 127h140l-19 -127h137l19 127h141l-19 -127h129l-21 -139h-128l-19 -135h128l-20 -140h-129l-18 -127h-141l18 127h-136l-18 -127h-141zM313 267h137l19 134h-137z" />
    <glyph glyph-name="dollar" unicode="$" horiz-adv-x="619" 
d="M272 -10c-124 11 -210 71 -247 167l144 52c14 -50 50 -79 103 -89v157l-41 9c-108 24 -203 73 -203 188c0 129 123 193 244 204v69h73v-69c97 -8 185 -51 222 -143l-143 -52c-13 33 -41 55 -79 65v-143l11 -2c108 -20 240 -56 240 -194c0 -131 -123 -208 -251 -220v-76
h-73v77zM345 117c45 5 89 25 89 72c0 36 -35 57 -89 72v-144zM190 489c0 -34 30 -60 76 -68l6 -1v132c-48 -6 -82 -28 -82 -63z" />
    <glyph glyph-name="dollar" unicode="&#xe914;" horiz-adv-x="619" 
d="M272 -10c-124 11 -210 71 -247 167l144 52c14 -50 50 -79 103 -89v157l-41 9c-108 24 -203 73 -203 188c0 129 123 193 244 204v69h73v-69c97 -8 185 -51 222 -143l-143 -52c-13 33 -41 55 -79 65v-143l11 -2c108 -20 240 -56 240 -194c0 -131 -123 -208 -251 -220v-76
h-73v77zM345 117c45 5 89 25 89 72c0 36 -35 57 -89 72v-144zM190 489c0 -34 30 -60 76 -68l6 -1v132c-48 -6 -82 -28 -82 -63z" />
    <glyph glyph-name="percent" unicode="%" horiz-adv-x="977" 
d="M756 -12c-109 0 -197 89 -197 198s88 196 197 196s197 -87 197 -196s-88 -198 -197 -198zM221 286c-109 0 -197 87 -197 196s88 198 197 198c108 0 197 -89 197 -198s-89 -196 -197 -196zM318 0h-126l467 668h127zM756 264c-43 0 -79 -35 -79 -78c0 -44 36 -79 79 -79
s79 35 79 79c0 43 -36 78 -79 78zM143 482c0 -43 35 -78 78 -78c44 0 79 35 79 78c0 44 -35 79 -79 79c-43 0 -78 -35 -78 -79z" />
    <glyph glyph-name="percent" unicode="&#xe915;" horiz-adv-x="977" 
d="M756 -12c-109 0 -197 89 -197 198s88 196 197 196s197 -87 197 -196s-88 -198 -197 -198zM221 286c-109 0 -197 87 -197 196s88 198 197 198c108 0 197 -89 197 -198s-89 -196 -197 -196zM318 0h-126l467 668h127zM756 264c-43 0 -79 -35 -79 -78c0 -44 36 -79 79 -79
s79 35 79 79c0 43 -36 78 -79 78zM143 482c0 -43 35 -78 78 -78c44 0 79 35 79 78c0 44 -35 79 -79 79c-43 0 -78 -35 -78 -79z" />
    <glyph glyph-name="ampersand" unicode="&#x26;" horiz-adv-x="702" 
d="M24 191c0 72 47 147 158 194c-43 54 -61 106 -61 151c0 101 90 170 208 170c97 0 192 -79 192 -175c0 -58 -35 -123 -126 -179l94 -108c25 40 45 88 57 145h127c-16 -99 -57 -188 -100 -244l125 -145h-176l-46 53c-76 -47 -147 -66 -210 -66c-143 0 -242 99 -242 204z
M183 197c0 -45 43 -85 103 -85c31 0 69 11 106 34l-126 144c-59 -23 -83 -59 -83 -93zM323 592c-35 0 -63 -21 -63 -55c0 -26 17 -61 62 -100c51 27 72 62 72 91c0 36 -30 64 -71 64z" />
    <glyph glyph-name="ampersand" unicode="&#xe916;" horiz-adv-x="702" 
d="M24 191c0 72 47 147 158 194c-43 54 -61 106 -61 151c0 101 90 170 208 170c97 0 192 -79 192 -175c0 -58 -35 -123 -126 -179l94 -108c25 40 45 88 57 145h127c-16 -99 -57 -188 -100 -244l125 -145h-176l-46 53c-76 -47 -147 -66 -210 -66c-143 0 -242 99 -242 204z
M183 197c0 -45 43 -85 103 -85c31 0 69 11 106 34l-126 144c-59 -23 -83 -59 -83 -93zM323 592c-35 0 -63 -21 -63 -55c0 -26 17 -61 62 -100c51 27 72 62 72 91c0 36 -30 64 -71 64z" />
    <glyph glyph-name="quotesingle" unicode="'" horiz-adv-x="222" 
d="M40 668h142l-14 -234h-114z" />
    <glyph glyph-name="quotesingle" unicode="&#xe917;" horiz-adv-x="222" 
d="M40 668h142l-14 -234h-114z" />
    <glyph glyph-name="parenleft" unicode="(" horiz-adv-x="366" 
d="M180 -161c-88 123 -145 274 -145 441c0 139 40 273 110 388h144c-78 -118 -113 -248 -113 -392c0 -165 68 -316 155 -437h-151z" />
    <glyph glyph-name="parenleft" unicode="&#xe918;" horiz-adv-x="366" 
d="M180 -161c-88 123 -145 274 -145 441c0 139 40 273 110 388h144c-78 -118 -113 -248 -113 -392c0 -165 68 -316 155 -437h-151z" />
    <glyph glyph-name="parenright" unicode=")" horiz-adv-x="366" 
d="M35 -161c88 121 155 272 155 437c0 144 -35 274 -113 392h144c70 -115 110 -249 110 -388c0 -167 -57 -318 -144 -441h-152z" />
    <glyph glyph-name="parenright" unicode="&#xe919;" horiz-adv-x="366" 
d="M35 -161c88 121 155 272 155 437c0 144 -35 274 -113 392h144c70 -115 110 -249 110 -388c0 -167 -57 -318 -144 -441h-152z" />
    <glyph glyph-name="asterisk" unicode="*" horiz-adv-x="434" 
d="M383 515l-95 -31l59 -82l-71 -51l-59 81l-59 -81l-71 51l59 82l-96 31l27 83l96 -31v101h88v-101l94 31z" />
    <glyph glyph-name="asterisk" unicode="&#xe91a;" horiz-adv-x="434" 
d="M383 515l-95 -31l59 -82l-71 -51l-59 81l-59 -81l-71 51l59 82l-96 31l27 83l96 -31v101h88v-101l94 31z" />
    <glyph glyph-name="plus" unicode="+" horiz-adv-x="618" 
d="M245 184h-192v128h192v184h128v-184h192v-128h-192v-184h-128v184z" />
    <glyph glyph-name="plus" unicode="&#xe91b;" horiz-adv-x="618" 
d="M245 184h-192v128h192v184h128v-184h192v-128h-192v-184h-128v184z" />
    <glyph glyph-name="comma" unicode="," horiz-adv-x="277" 
d="M116 -9c-43 10 -75 49 -75 95c0 54 44 97 98 97c53 0 97 -43 97 -98c0 -12 -2 -24 -6 -35l-77 -196h-90z" />
    <glyph glyph-name="comma" unicode="&#xe91c;" horiz-adv-x="277" 
d="M116 -9c-43 10 -75 49 -75 95c0 54 44 97 98 97c53 0 97 -43 97 -98c0 -12 -2 -24 -6 -35l-77 -196h-90z" />
    <glyph glyph-name="hyphen" unicode="-" horiz-adv-x="408" 
d="M367 184h-326v129h326v-129z" />
    <glyph glyph-name="hyphen" unicode="&#xe91d;" horiz-adv-x="408" 
d="M367 184h-326v129h326v-129z" />
    <glyph glyph-name="period" unicode="." horiz-adv-x="277" 
d="M41 86c0 54 44 97 98 97c53 0 97 -43 97 -97s-44 -98 -97 -98c-54 0 -98 44 -98 98z" />
    <glyph glyph-name="period" unicode="&#xe91e;" horiz-adv-x="277" 
d="M41 86c0 54 44 97 98 97c53 0 97 -43 97 -97s-44 -98 -97 -98c-54 0 -98 44 -98 98z" />
    <glyph glyph-name="slash" unicode="/" horiz-adv-x="442" 
d="M15 0l261 668h151l-259 -668h-153z" />
    <glyph glyph-name="slash" unicode="&#xe91f;" horiz-adv-x="442" 
d="M15 0l261 668h151l-259 -668h-153z" />
    <glyph glyph-name="braceleft" unicode="{" horiz-adv-x="370" 
d="M94 97c0 59 -8 96 -70 96v123c62 0 70 37 70 94v96c0 129 72 162 191 162h51v-120h-33c-42 0 -65 -7 -65 -44v-123c0 -84 -45 -112 -94 -125v-3c49 -13 94 -40 94 -125v-125c0 -37 23 -44 65 -44h33v-120h-51c-119 0 -191 33 -191 163v95z" />
    <glyph glyph-name="braceleft" unicode="&#xe92d;" horiz-adv-x="370" 
d="M94 97c0 59 -8 96 -70 96v123c62 0 70 37 70 94v96c0 129 72 162 191 162h51v-120h-33c-42 0 -65 -7 -65 -44v-123c0 -84 -45 -112 -94 -125v-3c49 -13 94 -40 94 -125v-125c0 -37 23 -44 65 -44h33v-120h-51c-119 0 -191 33 -191 163v95z" />
    <glyph glyph-name="bar" unicode="|" horiz-adv-x="234" 
d="M190 -161h-146v829h146v-829z" />
    <glyph glyph-name="bar" unicode="&#xe92e;" horiz-adv-x="234" 
d="M190 -161h-146v829h146v-829z" />
    <glyph glyph-name="braceright" unicode="}" horiz-adv-x="370" 
d="M34 -161v120h34c42 0 65 7 65 44v125c0 85 44 112 93 125v3c-49 13 -93 41 -93 125v123c0 37 -23 44 -65 44h-34v120h52c119 0 191 -33 191 -162v-96c0 -57 8 -94 69 -94v-123c-61 0 -69 -37 -69 -96v-95c0 -130 -72 -163 -191 -163h-52z" />
    <glyph glyph-name="braceright" unicode="&#xe92f;" horiz-adv-x="370" 
d="M34 -161v120h34c42 0 65 7 65 44v125c0 85 44 112 93 125v3c-49 13 -93 41 -93 125v123c0 37 -23 44 -65 44h-34v120h52c119 0 191 -33 191 -162v-96c0 -57 8 -94 69 -94v-123c-61 0 -69 -37 -69 -96v-95c0 -130 -72 -163 -191 -163h-52z" />
    <glyph glyph-name="asciitilde" unicode="~" horiz-adv-x="533" 
d="M40 184c7 103 41 166 136 166c75 0 123 -60 171 -60c23 0 44 14 40 80l106 -37c-7 -103 -40 -166 -134 -166c-70 0 -116 60 -173 60c-24 0 -44 -13 -41 -81z" />
    <glyph glyph-name="asciitilde" unicode="&#xe930;" horiz-adv-x="533" 
d="M40 184c7 103 41 166 136 166c75 0 123 -60 171 -60c23 0 44 14 40 80l106 -37c-7 -103 -40 -166 -134 -166c-70 0 -116 60 -173 60c-24 0 -44 -13 -41 -81z" />
    <glyph glyph-name="exclamdown" unicode="&#xa1;" horiz-adv-x="283" 
d="M45 -161v173l41 253h111l41 -253v-173h-193zM44 421c0 54 44 98 98 98c53 0 97 -44 97 -98c0 -53 -44 -96 -97 -96c-54 0 -98 43 -98 96z" />
    <glyph glyph-name="exclamdown" unicode="&#xe931;" horiz-adv-x="283" 
d="M45 -161v173l41 253h111l41 -253v-173h-193zM44 421c0 54 44 98 98 98c53 0 97 -44 97 -98c0 -53 -44 -96 -97 -96c-54 0 -98 43 -98 96z" />
    <glyph glyph-name="cent" unicode="&#xa2;" horiz-adv-x="520" 
d="M244 -11c-142 14 -220 115 -220 262c0 143 88 242 220 257v63h73v-64c73 -9 146 -45 185 -128l-127 -45c-12 30 -33 47 -57 54v-279c26 6 46 22 58 43l124 -45c-42 -75 -114 -108 -183 -117v-77h-73v76zM244 383c-37 -17 -65 -57 -65 -133c0 -79 29 -119 65 -135v268z
" />
    <glyph glyph-name="cent" unicode="&#xe933;" horiz-adv-x="520" 
d="M244 -11c-142 14 -220 115 -220 262c0 143 88 242 220 257v63h73v-64c73 -9 146 -45 185 -128l-127 -45c-12 30 -33 47 -57 54v-279c26 6 46 22 58 43l124 -45c-42 -75 -114 -108 -183 -117v-77h-73v76zM244 383c-37 -17 -65 -57 -65 -133c0 -79 29 -119 65 -135v268z
" />
    <glyph glyph-name="sterling" unicode="&#xa3;" horiz-adv-x="617" 
d="M50 368h75c-22 41 -43 86 -43 135c0 125 128 176 252 176c116 0 212 -53 251 -143l-136 -50c-15 52 -65 72 -113 72c-54 0 -94 -26 -94 -68c0 -43 26 -81 48 -122h160v-73h-126c5 -13 7 -26 7 -40c0 -56 -48 -104 -105 -140c28 16 56 19 84 19c51 0 101 -21 143 -21
c36 0 69 11 103 31l44 -121c-46 -23 -95 -35 -160 -35c-71 0 -134 36 -200 36c-29 0 -77 -4 -135 -36l-55 116c79 38 123 75 123 147c0 14 -3 29 -10 44h-113v73z" />
    <glyph glyph-name="sterling" unicode="&#xe934;" horiz-adv-x="617" 
d="M50 368h75c-22 41 -43 86 -43 135c0 125 128 176 252 176c116 0 212 -53 251 -143l-136 -50c-15 52 -65 72 -113 72c-54 0 -94 -26 -94 -68c0 -43 26 -81 48 -122h160v-73h-126c5 -13 7 -26 7 -40c0 -56 -48 -104 -105 -140c28 16 56 19 84 19c51 0 101 -21 143 -21
c36 0 69 11 103 31l44 -121c-46 -23 -95 -35 -160 -35c-71 0 -134 36 -200 36c-29 0 -77 -4 -135 -36l-55 116c79 38 123 75 123 147c0 14 -3 29 -10 44h-113v73z" />
    <glyph glyph-name="currency" unicode="&#xa4;" horiz-adv-x="596" 
d="M120 446l-67 67l52 52l67 -67c36 26 79 41 126 41c48 0 90 -15 126 -41l67 67l52 -52l-67 -67c26 -36 40 -79 40 -125c0 -48 -15 -91 -40 -127l67 -67l-52 -52l-67 67c-36 -26 -78 -40 -126 -40c-47 0 -90 14 -126 40l-67 -67l-52 52l67 67c-26 36 -41 79 -41 127
c0 46 15 89 41 125zM199 321c0 -55 44 -100 99 -100c54 0 99 45 99 100c0 54 -45 98 -99 98c-55 0 -99 -44 -99 -98z" />
    <glyph glyph-name="currency" unicode="&#xe935;" horiz-adv-x="596" 
d="M120 446l-67 67l52 52l67 -67c36 26 79 41 126 41c48 0 90 -15 126 -41l67 67l52 -52l-67 -67c26 -36 40 -79 40 -125c0 -48 -15 -91 -40 -127l67 -67l-52 -52l-67 67c-36 -26 -78 -40 -126 -40c-47 0 -90 14 -126 40l-67 -67l-52 52l67 67c-26 36 -41 79 -41 127
c0 46 15 89 41 125zM199 321c0 -55 44 -100 99 -100c54 0 99 45 99 100c0 54 -45 98 -99 98c-55 0 -99 -44 -99 -98z" />
    <glyph glyph-name="yen" unicode="&#xa5;" horiz-adv-x="687" 
d="M249 286l-239 381h184l149 -256l149 256h185l-239 -381h114v-74h-130v-63h130v-74h-130v-75h-157v75h-129v74h129v63h-129v74h113z" />
    <glyph glyph-name="yen" unicode="&#xe936;" horiz-adv-x="687" 
d="M249 286l-239 381h184l149 -256l149 256h185l-239 -381h114v-74h-130v-63h130v-74h-130v-75h-157v75h-129v74h129v63h-129v74h113z" />
    <glyph glyph-name="brokenbar" unicode="&#xa6;" horiz-adv-x="216" 
d="M172 -161h-128v311h128v-311zM44 668h128v-310h-128v310z" />
    <glyph glyph-name="brokenbar" unicode="&#xe937;" horiz-adv-x="216" 
d="M172 -161h-128v311h128v-311zM44 668h128v-310h-128v310z" />
    <glyph glyph-name="section" unicode="&#xa7;" horiz-adv-x="578" 
d="M162 125c-89 43 -141 95 -141 170c0 51 35 95 86 126c-24 30 -39 66 -39 106c0 100 99 153 214 153c79 0 167 -26 207 -112l-130 -47c-6 14 -22 44 -78 44c-40 0 -64 -13 -64 -34c0 -22 23 -38 61 -57l122 -60c96 -47 151 -90 151 -166c0 -55 -35 -102 -93 -134
c28 -30 44 -65 44 -109c0 -109 -94 -178 -225 -178c-108 0 -182 53 -213 138l130 47c12 -46 43 -68 87 -68s70 20 70 49c0 30 -26 53 -74 76zM211 352c-26 -13 -41 -28 -41 -45c0 -27 25 -43 61 -61l125 -62c27 12 42 25 42 46c0 30 -32 46 -77 68z" />
    <glyph glyph-name="section" unicode="&#xe938;" horiz-adv-x="578" 
d="M162 125c-89 43 -141 95 -141 170c0 51 35 95 86 126c-24 30 -39 66 -39 106c0 100 99 153 214 153c79 0 167 -26 207 -112l-130 -47c-6 14 -22 44 -78 44c-40 0 -64 -13 -64 -34c0 -22 23 -38 61 -57l122 -60c96 -47 151 -90 151 -166c0 -55 -35 -102 -93 -134
c28 -30 44 -65 44 -109c0 -109 -94 -178 -225 -178c-108 0 -182 53 -213 138l130 47c12 -46 43 -68 87 -68s70 20 70 49c0 30 -26 53 -74 76zM211 352c-26 -13 -41 -28 -41 -45c0 -27 25 -43 61 -61l125 -62c27 12 42 25 42 46c0 30 -32 46 -77 68z" />
    <glyph glyph-name="dieresis" unicode="&#xa8;" horiz-adv-x="452" 
d="M59 648c0 39 32 71 71 71s70 -32 70 -71s-31 -70 -70 -70s-71 31 -71 70zM324 578c-39 0 -71 31 -71 70s32 71 71 71c38 0 69 -32 69 -71s-31 -70 -69 -70z" />
    <glyph glyph-name="copyright" unicode="&#xa9;" horiz-adv-x="798" 
d="M398 -12c-190 0 -345 155 -345 346c0 190 155 345 345 345c192 0 347 -155 347 -345c0 -191 -155 -346 -347 -346zM123 334c0 -153 124 -277 275 -277c153 0 277 124 277 277c0 152 -124 276 -277 276c-151 0 -275 -124 -275 -276zM401 145c-117 0 -183 76 -183 189
s75 188 183 188c62 0 130 -24 163 -94l-92 -34c-12 31 -36 43 -65 43c-39 0 -77 -28 -77 -103c0 -78 39 -104 77 -104c32 0 54 13 66 34l90 -33c-37 -64 -104 -86 -162 -86z" />
    <glyph glyph-name="copyright" unicode="&#xe93a;" horiz-adv-x="798" 
d="M398 -12c-190 0 -345 155 -345 346c0 190 155 345 345 345c192 0 347 -155 347 -345c0 -191 -155 -346 -347 -346zM123 334c0 -153 124 -277 275 -277c153 0 277 124 277 277c0 152 -124 276 -277 276c-151 0 -275 -124 -275 -276zM401 145c-117 0 -183 76 -183 189
s75 188 183 188c62 0 130 -24 163 -94l-92 -34c-12 31 -36 43 -65 43c-39 0 -77 -28 -77 -103c0 -78 39 -104 77 -104c32 0 54 13 66 34l90 -33c-37 -64 -104 -86 -162 -86z" />
    <glyph glyph-name="questiondown" unicode="&#xbf;" horiz-adv-x="614" 
d="M50 -2c0 87 55 130 126 164c64 29 96 48 98 103h154c0 -94 -27 -134 -110 -176c-45 -23 -112 -41 -112 -79c0 -37 40 -61 102 -61s112 20 129 71l137 -50c-37 -92 -137 -143 -268 -143c-132 0 -256 54 -256 171zM350 324c-53 0 -97 43 -97 97s44 98 97 98
c54 0 97 -44 97 -98s-43 -97 -97 -97z" />
    <glyph glyph-name="questiondown" unicode="&#xe94e;" horiz-adv-x="614" 
d="M50 -2c0 87 55 130 126 164c64 29 96 48 98 103h154c0 -94 -27 -134 -110 -176c-45 -23 -112 -41 -112 -79c0 -37 40 -61 102 -61s112 20 129 71l137 -50c-37 -92 -137 -143 -268 -143c-132 0 -256 54 -256 171zM350 324c-53 0 -97 43 -97 97s44 98 97 98
c54 0 97 -44 97 -98s-43 -97 -97 -97z" />
    <glyph glyph-name="grave.case" horiz-adv-x="249" 
d="M-20 829c0 29 27 56 56 56c15 0 28 -6 38 -15c1 -1 125 -139 125 -139h-125l-74 55c-13 13 -20 24 -20 43z" />
    <glyph glyph-name="acute.case" horiz-adv-x="199" 
d="M44 731c0 0 119 133 119 134l5 5c10 9 24 15 38 15c31 0 56 -25 56 -56c0 -18 -7 -31 -19 -43l-74 -55h-125z" />
    <glyph glyph-name="circumflex.case" horiz-adv-x="395" 
d="M1 731l147 133c13 11 30 19 49 19s36 -7 49 -19l148 -133h-129l-68 61l-67 -61h-129z" />
    <glyph glyph-name="dieresis.case" horiz-adv-x="366" 
d="M16 796c0 39 32 71 71 71s70 -32 70 -71s-31 -70 -70 -70s-71 31 -71 70zM281 726c-39 0 -71 31 -71 70s32 71 71 71c38 0 69 -32 69 -71s-31 -70 -69 -70z" />
    <glyph glyph-name="germandbls" unicode="&#xdf;" horiz-adv-x="629" 
d="M197 0h-153v435c0 182 104 244 275 244c135 0 238 -63 238 -186c0 -56 -26 -100 -53 -123c53 -28 95 -82 95 -166c0 -146 -100 -216 -242 -216c-13 0 -25 0 -38 1l-41 134c22 -6 44 -9 67 -9c51 0 98 30 98 84c0 73 -55 100 -134 100h-31v117h26c71 0 106 23 106 71
c0 40 -29 70 -95 70c-97 0 -118 -43 -118 -132v-424z" />
    <glyph glyph-name="germandbls" unicode="&#xe96c;" horiz-adv-x="629" 
d="M197 0h-153v435c0 182 104 244 275 244c135 0 238 -63 238 -186c0 -56 -26 -100 -53 -123c53 -28 95 -82 95 -166c0 -146 -100 -216 -242 -216c-13 0 -25 0 -38 1l-41 134c22 -6 44 -9 67 -9c51 0 98 30 98 84c0 73 -55 100 -134 100h-31v117h26c71 0 106 23 106 71
c0 40 -29 70 -95 70c-97 0 -118 -43 -118 -132v-424z" />
    <glyph glyph-name="AE" unicode="&#xc6;" horiz-adv-x="1016" 
d="M177 0h-172l476 667h513v-139h-355v-115h218v-138h-218v-136h355v-139h-513v119h-224zM341 247h140v206z" />
    <glyph glyph-name="AE" unicode="&#xe953;" horiz-adv-x="1016" 
d="M177 0h-172l476 667h513v-139h-355v-115h218v-138h-218v-136h355v-139h-513v119h-224zM341 247h140v206z" />
    <glyph glyph-name="caron.case" horiz-adv-x="395" 
d="M1 877h129l68 -61l68 61h128l-146 -133c-14 -12 -31 -19 -50 -19s-37 7 -50 19z" />
    <glyph glyph-name="florin" unicode="&#x192;" horiz-adv-x="377" 
d="M15 496h82v82c0 117 57 151 191 151h69v-121h-42c-54 0 -66 -7 -66 -44v-68h108v-115h-108v-397c0 -79 -36 -129 -85 -147c-17 -6 -43 -9 -71 -9c-26 0 -55 3 -78 8v133c22 -4 47 -3 60 5c19 12 22 29 22 65v342h-82v115z" />
    <glyph glyph-name="florin" unicode="&#xe997;" horiz-adv-x="377" 
d="M15 496h82v82c0 117 57 151 191 151h69v-121h-42c-54 0 -66 -7 -66 -44v-68h108v-115h-108v-397c0 -79 -36 -129 -85 -147c-17 -6 -43 -9 -71 -9c-26 0 -55 3 -78 8v133c22 -4 47 -3 60 5c19 12 22 29 22 65v342h-82v115z" />
    <glyph glyph-name="integral" unicode="&#x222b;" horiz-adv-x="486" 
d="M41 -84c1 30 26 54 56 54c32 0 57 -25 57 -56c0 -7 -1 -13 -3 -19c22 10 29 45 29 107c0 46 -7 290 -8 386c-2 231 79 292 174 292c49 0 99 -38 99 -90c-1 -30 -26 -54 -56 -54c-32 0 -56 25 -56 56c0 7 1 13 3 19c-21 -10 -29 -45 -29 -107c0 -46 7 -289 8 -386
c2 -231 -79 -292 -174 -292c-45 0 -100 43 -100 90z" />
    <glyph glyph-name="integral" unicode="&#xe9bf;" horiz-adv-x="486" 
d="M41 -84c1 30 26 54 56 54c32 0 57 -25 57 -56c0 -7 -1 -13 -3 -19c22 10 29 45 29 107c0 46 -7 290 -8 386c-2 231 79 292 174 292c49 0 99 -38 99 -90c-1 -30 -26 -54 -56 -54c-32 0 -56 25 -56 56c0 7 1 13 3 19c-21 -10 -29 -45 -29 -107c0 -46 7 -289 8 -386
c2 -231 -79 -292 -174 -292c-45 0 -100 43 -100 90z" />
    <glyph glyph-name="approxequal" unicode="&#x2248;" horiz-adv-x="532" 
d="M145 57l-104 38c9 91 45 148 134 148c76 0 124 -61 172 -61c20 0 39 11 40 62l104 -38c-9 -92 -44 -147 -132 -147c-70 0 -117 59 -174 59c-21 0 -39 -10 -40 -61zM41 294c9 90 45 147 134 147c76 0 124 -61 172 -61c20 0 39 11 40 61l104 -37c-9 -91 -44 -147 -132 -147
c-70 0 -117 60 -174 60c-21 0 -39 -10 -40 -61z" />
    <glyph glyph-name="approxequal" unicode="&#xe9c0;" horiz-adv-x="532" 
d="M145 57l-104 38c9 91 45 148 134 148c76 0 124 -61 172 -61c20 0 39 11 40 62l104 -38c-9 -92 -44 -147 -132 -147c-70 0 -117 59 -174 59c-21 0 -39 -10 -40 -61zM41 294c9 90 45 147 134 147c76 0 124 -61 172 -61c20 0 39 11 40 61l104 -37c-9 -91 -44 -147 -132 -147
c-70 0 -117 60 -174 60c-21 0 -39 -10 -40 -61z" />
    <glyph glyph-name="notequal" unicode="&#x2260;" horiz-adv-x="594" 
d="M41 225h163l41 58h-204v127h294l59 85h153l-60 -85h66v-127h-156l-40 -58h196v-129h-285l-68 -96h-153l67 96h-73v129z" />
    <glyph glyph-name="notequal" unicode="&#xe9c1;" horiz-adv-x="594" 
d="M41 225h163l41 58h-204v127h294l59 85h153l-60 -85h66v-127h-156l-40 -58h196v-129h-285l-68 -96h-153l67 96h-73v129z" />
    <glyph glyph-name="lessequal" unicode="&#x2264;" horiz-adv-x="594" 
d="M553 136l-512 124v126l512 124v-129l-337 -57l337 -59v-129zM41 128h512v-128h-512v128z" />
    <glyph glyph-name="lessequal" unicode="&#xe9c2;" horiz-adv-x="594" 
d="M553 136l-512 124v126l512 124v-129l-337 -57l337 -59v-129zM41 128h512v-128h-512v128z" />
    <glyph glyph-name="greaterequal" unicode="&#x2265;" horiz-adv-x="594" 
d="M41 510l512 -124v-126l-512 -124v129l337 59l-337 57v129zM41 0v128h512v-128h-512z" />
    <glyph glyph-name="greaterequal" unicode="&#xe9c3;" horiz-adv-x="594" 
d="M41 510l512 -124v-126l-512 -124v129l337 59l-337 57v129zM41 0v128h512v-128h-512z" />
    <glyph glyph-name="lozenge" unicode="&#x25ca;" horiz-adv-x="607" 
d="M304 502l-125 -189l125 -189l124 189zM304 716l262 -403l-262 -404l-263 404z" />
    <glyph glyph-name="lozenge" unicode="&#xe9c4;" horiz-adv-x="607" 
d="M304 502l-125 -189l125 -189l124 189zM304 716l262 -403l-262 -404l-263 404z" />
    <glyph glyph-name="summation" unicode="&#x2211;" horiz-adv-x="617" 
d="M41 668h535v-128h-365l239 -286l-239 -288h365v-128h-535v128l237 288l-237 286v128z" />
    <glyph glyph-name="summation" unicode="&#xe9b9;" horiz-adv-x="617" 
d="M41 668h535v-128h-365l239 -286l-239 -288h365v-128h-535v128l237 288l-237 286v128z" />
    <glyph glyph-name="minus" unicode="&#x2212;" horiz-adv-x="594" 
d="M553 184h-512v128h512v-128z" />
    <glyph glyph-name="minus" unicode="&#xe9ba;" horiz-adv-x="594" 
d="M553 184h-512v128h512v-128z" />
    <glyph glyph-name="uni2215" unicode="&#x2215;" horiz-adv-x="651" 
d="M483 668h153l-468 -668h-153z" />
    <glyph glyph-name="uni2215" unicode="&#xe9bb;" horiz-adv-x="651" 
d="M483 668h153l-468 -668h-153z" />
    <glyph glyph-name="uni2219" unicode="&#x2219;" horiz-adv-x="277" 
d="M41 255c0 54 44 96 98 96c53 0 97 -42 97 -96s-44 -98 -97 -98c-54 0 -98 44 -98 98z" />
    <glyph glyph-name="uni2219" unicode="&#xe9bc;" horiz-adv-x="277" 
d="M41 255c0 54 44 96 98 96c53 0 97 -42 97 -96s-44 -98 -97 -98c-54 0 -98 44 -98 98z" />
    <glyph glyph-name="radical" unicode="&#x221a;" horiz-adv-x="709" 
d="M524 668h144l-219 -830h-156l-110 255h-142v132h233l80 -196z" />
    <glyph glyph-name="radical" unicode="&#xe9bd;" horiz-adv-x="709" 
d="M524 668h144l-219 -830h-156l-110 255h-142v132h233l80 -196z" />
    <glyph glyph-name="infinity" unicode="&#x221e;" horiz-adv-x="749" 
d="M213 97c-97 0 -172 65 -172 158c0 91 77 157 176 157c66 0 116 -32 157 -76c42 44 92 76 158 76c99 0 176 -66 176 -157c0 -93 -75 -158 -172 -158c-72 0 -121 35 -162 79c-41 -44 -89 -79 -161 -79zM527 306c-34 0 -63 -23 -86 -50c23 -28 51 -52 88 -52
c35 0 59 22 59 52s-27 50 -61 50zM222 306c-34 0 -61 -20 -61 -50s24 -52 59 -52c37 0 65 24 88 52c-23 27 -52 50 -86 50z" />
    <glyph glyph-name="infinity" unicode="&#xe9be;" horiz-adv-x="749" 
d="M213 97c-97 0 -172 65 -172 158c0 91 77 157 176 157c66 0 116 -32 157 -76c42 44 92 76 158 76c99 0 176 -66 176 -157c0 -93 -75 -158 -172 -158c-72 0 -121 35 -162 79c-41 -44 -89 -79 -161 -79zM527 306c-34 0 -63 -23 -86 -50c23 -28 51 -52 88 -52
c35 0 59 22 59 52s-27 50 -61 50zM222 306c-34 0 -61 -20 -61 -50s24 -52 59 -52c37 0 65 24 88 52c-23 27 -52 50 -86 50z" />
    <glyph glyph-name="uni03A9" unicode="&#x3a9;" horiz-adv-x="668" 
d="M41 0v115h137v24c-82 52 -137 144 -137 247c0 162 131 294 293 294s293 -132 293 -294c0 -103 -55 -195 -137 -247v-24h137v-115h-268v223c83 12 146 84 146 169c0 95 -77 172 -171 172c-95 0 -172 -77 -172 -172c0 -85 64 -157 147 -169v-223h-268z" />
    <glyph glyph-name="uni03A9" unicode="&#xe9b4;" horiz-adv-x="668" 
d="M41 0v115h137v24c-82 52 -137 144 -137 247c0 162 131 294 293 294s293 -132 293 -294c0 -103 -55 -195 -137 -247v-24h137v-115h-268v223c83 12 146 84 146 169c0 95 -77 172 -171 172c-95 0 -172 -77 -172 -172c0 -85 64 -157 147 -169v-223h-268z" />
    <glyph glyph-name="estimated" unicode="&#x212e;" horiz-adv-x="604" 
d="M303 -12c-145 0 -262 117 -262 261s117 261 262 261c143 0 260 -117 260 -261h-385v-145c33 -29 77 -46 125 -46c58 0 112 27 147 70l68 -25c-47 -69 -126 -115 -215 -115zM178 394v-79h248v79c-33 29 -77 46 -123 46c-48 0 -92 -17 -125 -46z" />
    <glyph glyph-name="estimated" unicode="&#xe9b5;" horiz-adv-x="604" 
d="M303 -12c-145 0 -262 117 -262 261s117 261 262 261c143 0 260 -117 260 -261h-385v-145c33 -29 77 -46 125 -46c58 0 112 27 147 70l68 -25c-47 -69 -126 -115 -215 -115zM178 394v-79h248v79c-33 29 -77 46 -123 46c-48 0 -92 -17 -125 -46z" />
    <glyph glyph-name="partialdiff" unicode="&#x2202;" horiz-adv-x="597" 
d="M289 -12c-134 0 -248 77 -248 224c0 123 100 223 224 223c93 0 150 -44 177 -79c-9 125 -70 215 -270 204v120c100 0 384 14 384 -365c0 -58 -5 -117 -27 -172c-51 -123 -155 -155 -240 -155zM296 315c-57 0 -104 -46 -104 -104c0 -57 47 -104 104 -104s103 47 103 104
c0 58 -46 104 -103 104z" />
    <glyph glyph-name="partialdiff" unicode="&#xe9b6;" horiz-adv-x="597" 
d="M289 -12c-134 0 -248 77 -248 224c0 123 100 223 224 223c93 0 150 -44 177 -79c-9 125 -70 215 -270 204v120c100 0 384 14 384 -365c0 -58 -5 -117 -27 -172c-51 -123 -155 -155 -240 -155zM296 315c-57 0 -104 -46 -104 -104c0 -57 47 -104 104 -104s103 47 103 104
c0 58 -46 104 -103 104z" />
    <glyph glyph-name="uni0394" unicode="&#x394;" horiz-adv-x="715" 
d="M357 418l-128 -303h256zM357 680l317 -680h-633z" />
    <glyph glyph-name="uni0394" unicode="&#xe9b7;" horiz-adv-x="715" 
d="M357 418l-128 -303h256zM357 680l317 -680h-633z" />
    <glyph glyph-name="product" unicode="&#x220f;" horiz-adv-x="614" 
d="M169 -161h-128v829h532v-829h-128v713h-276v-713z" />
    <glyph glyph-name="product" unicode="&#xe9b8;" horiz-adv-x="614" 
d="M169 -161h-128v829h532v-829h-128v713h-276v-713z" />
    <glyph glyph-name="pi" unicode="&#x3c0;" horiz-adv-x="671" 
d="M41 496h589v-116h-88v-229c0 -39 13 -46 55 -46h33v-105h-78c-102 0 -138 20 -138 118v262h-154v-380h-128v380h-91v116z" />
    <glyph glyph-name="pi" unicode="&#xe9a0;" horiz-adv-x="671" 
d="M41 496h589v-116h-88v-229c0 -39 13 -46 55 -46h33v-105h-78c-102 0 -138 20 -138 118v262h-154v-380h-128v380h-91v116z" />
    <glyph glyph-name="hungarumlaut" unicode="&#x2dd;" horiz-adv-x="490" 
d="M37 574l109 133c2 1 14 20 43 20c32 0 56 -24 56 -56c0 -17 -7 -32 -19 -42l-75 -55h-114zM353 574h-114l109 133c2 1 14 20 43 20c32 0 56 -24 56 -56c0 -16 -7 -32 -19 -42z" />
    <glyph glyph-name="hungarumlaut" unicode="&#xe9c5;" horiz-adv-x="490" 
d="M37 574l109 133c2 1 14 20 43 20c32 0 56 -24 56 -56c0 -17 -7 -32 -19 -42l-75 -55h-114zM353 574h-114l109 133c2 1 14 20 43 20c32 0 56 -24 56 -56c0 -16 -7 -32 -19 -42z" />
    <glyph glyph-name="tilde" unicode="&#x2dc;" horiz-adv-x="444" 
d="M37 574c12 73 54 115 125 115c63 0 83 -41 124 -41c19 0 30 7 43 21c12 13 23 20 36 20c34 0 53 -33 36 -63c-21 -37 -67 -57 -109 -57c-24 0 -48 6 -68 16c-24 12 -35 21 -52 22c-24 1 -42 -11 -46 -33h-89z" />
    <glyph glyph-name="tilde" unicode="&#xe99f;" horiz-adv-x="444" 
d="M37 574c12 73 54 115 125 115c63 0 83 -41 124 -41c19 0 30 7 43 21c12 13 23 20 36 20c34 0 53 -33 36 -63c-21 -37 -67 -57 -109 -57c-24 0 -48 6 -68 16c-24 12 -35 21 -52 22c-24 1 -42 -11 -46 -33h-89z" />
    <glyph glyph-name="endash" unicode="&#x2013;" horiz-adv-x="508" 
d="M467 185h-426v128h426v-128z" />
    <glyph glyph-name="emdash" unicode="&#x2014;" horiz-adv-x="842" 
d="M801 185h-760v128h760v-128z" />
    <glyph glyph-name="trademark" unicode="&#x2122;" horiz-adv-x="935" 
d="M415 301v367h173l66 -236l67 236h173v-367h-107v257l-84 -257h-97l-84 257v-257h-107zM41 575v93h350v-93h-120v-274h-109v274h-121z" />
    <glyph glyph-name="trademark" unicode="&#xe9b3;" horiz-adv-x="935" 
d="M415 301v367h173l66 -236l67 236h173v-367h-107v257l-84 -257h-97l-84 257v-257h-107zM41 575v93h350v-93h-120v-274h-109v274h-121z" />
    <glyph glyph-name="dotlessi" unicode="&#x131;" horiz-adv-x="301" 
d="M24 496h247v-496h-153v381h-94v115z" />
    <glyph glyph-name="dotlessi" unicode="&#xe98d;" horiz-adv-x="301" 
d="M24 496h247v-496h-153v381h-94v115z" />
    <glyph glyph-name="Euro" unicode="&#x20ac;" horiz-adv-x="728" 
d="M131 366h-90l40 74h60c34 149 142 240 295 240c114 0 202 -61 248 -155l-129 -47c-26 50 -75 72 -124 72c-59 0 -109 -40 -133 -110h186l-41 -74h-160c-1 -10 -2 -21 -2 -32c0 -10 1 -20 1 -29h127l-40 -74h-73c24 -74 75 -113 137 -113c46 0 100 17 126 71l128 -47
c-48 -95 -140 -154 -255 -154c-155 0 -260 91 -292 243h-98l40 74h49v61z" />
    <glyph glyph-name="Euro" unicode="&#xe9b1;" horiz-adv-x="728" 
d="M131 366h-90l40 74h60c34 149 142 240 295 240c114 0 202 -61 248 -155l-129 -47c-26 50 -75 72 -124 72c-59 0 -109 -40 -133 -110h186l-41 -74h-160c-1 -10 -2 -21 -2 -32c0 -10 1 -20 1 -29h127l-40 -74h-73c24 -74 75 -113 137 -113c46 0 100 17 126 71l128 -47
c-48 -95 -140 -154 -255 -154c-155 0 -260 91 -292 243h-98l40 74h49v61z" />
    <glyph glyph-name="uni2113" unicode="&#x2113;" horiz-adv-x="504" 
d="M41 112v106l65 47v187c0 165 77 228 191 228c103 0 166 -54 166 -148c0 -106 -84 -179 -195 -260l-11 -8v-73c0 -59 20 -81 62 -81c31 0 57 14 79 31l57 -89c-30 -27 -88 -64 -170 -64c-100 0 -178 44 -179 169zM257 373l4 3c48 36 78 89 78 145c0 35 -15 52 -40 52
c-31 0 -42 -24 -42 -72v-128z" />
    <glyph glyph-name="uni2113" unicode="&#xe9b2;" horiz-adv-x="504" 
d="M41 112v106l65 47v187c0 165 77 228 191 228c103 0 166 -54 166 -148c0 -106 -84 -179 -195 -260l-11 -8v-73c0 -59 20 -81 62 -81c31 0 57 14 79 31l57 -89c-30 -27 -88 -64 -170 -64c-100 0 -178 44 -179 169zM257 373l4 3c48 36 78 89 78 145c0 35 -15 52 -40 52
c-31 0 -42 -24 -42 -72v-128z" />
    <glyph glyph-name="Lslash" unicode="&#x141;" horiz-adv-x="586" 
d="M13 300l80 47v321h158v-227l160 97v-122l-160 -95v-182h320v-139h-478v226l-80 -48v122z" />
    <glyph glyph-name="Lslash" unicode="&#xe98e;" horiz-adv-x="586" 
d="M13 300l80 47v321h158v-227l160 97v-122l-160 -95v-182h320v-139h-478v226l-80 -48v122z" />
    <glyph glyph-name="lslash" unicode="&#x142;" horiz-adv-x="322" 
d="M5 195v122l54 32v319h153v-228l107 65v-122l-107 -64v-140c0 -46 14 -55 65 -55h42v-124h-95c-122 0 -165 23 -165 139v89z" />
    <glyph glyph-name="lslash" unicode="&#xe98f;" horiz-adv-x="322" 
d="M5 195v122l54 32v319h153v-228l107 65v-122l-107 -64v-140c0 -46 14 -55 65 -55h42v-124h-95c-122 0 -165 23 -165 139v89z" />
    <glyph glyph-name="oslash" unicode="&#xf8;" horiz-adv-x="573" 
d="M82 75c-36 42 -58 100 -58 175c0 179 125 260 263 260c50 0 99 -11 140 -34l42 48l56 -48l-39 -45c39 -43 63 -102 63 -181c0 -180 -126 -262 -262 -262c-54 0 -106 13 -149 39l-46 -53l-56 48zM223 126c18 -14 40 -20 64 -20c61 0 107 40 107 144c0 26 -3 47 -8 66z
M287 392c-60 0 -108 -38 -108 -142c0 -21 2 -40 6 -56l157 183c-16 10 -34 15 -55 15z" />
    <glyph glyph-name="oslash" unicode="&#xe985;" horiz-adv-x="573" 
d="M82 75c-36 42 -58 100 -58 175c0 179 125 260 263 260c50 0 99 -11 140 -34l42 48l56 -48l-39 -45c39 -43 63 -102 63 -181c0 -180 -126 -262 -262 -262c-54 0 -106 13 -149 39l-46 -53l-56 48zM223 126c18 -14 40 -20 64 -20c61 0 107 40 107 144c0 26 -3 47 -8 66z
M287 392c-60 0 -108 -38 -108 -142c0 -21 2 -40 6 -56l157 183c-16 10 -34 15 -55 15z" />
    <glyph glyph-name="Oslash" unicode="&#xd8;" horiz-adv-x="763" 
d="M120 95c-54 59 -85 142 -85 239c0 207 141 345 345 345c76 0 143 -19 198 -53l45 53l56 -48l-44 -52c59 -60 93 -145 93 -245c0 -208 -143 -346 -348 -346c-78 0 -148 21 -204 58l-50 -58l-56 48zM272 157c31 -25 67 -39 108 -39c98 0 180 74 180 216
c0 50 -10 92 -28 125zM380 549c-96 0 -178 -74 -178 -215c0 -46 9 -85 24 -117l257 299c-29 22 -65 33 -103 33z" />
    <glyph glyph-name="Oslash" unicode="&#xe965;" horiz-adv-x="763" 
d="M120 95c-54 59 -85 142 -85 239c0 207 141 345 345 345c76 0 143 -19 198 -53l45 53l56 -48l-44 -52c59 -60 93 -145 93 -245c0 -208 -143 -346 -348 -346c-78 0 -148 21 -204 58l-50 -58l-56 48zM272 157c31 -25 67 -39 108 -39c98 0 180 74 180 216
c0 50 -10 92 -28 125zM380 549c-96 0 -178 -74 -178 -215c0 -46 9 -85 24 -117l257 299c-29 22 -65 33 -103 33z" />
    <glyph glyph-name="Thorn" unicode="&#xde;" horiz-adv-x="623" 
d="M44 0v667h159v-105h88c172 0 302 -43 302 -219c0 -173 -130 -215 -302 -215h-88v-128h-159zM203 269h93c72 0 130 9 130 77c0 71 -58 79 -130 79h-93v-156z" />
    <glyph glyph-name="Thorn" unicode="&#xe96b;" horiz-adv-x="623" 
d="M44 0v667h159v-105h88c172 0 302 -43 302 -219c0 -173 -130 -215 -302 -215h-88v-128h-159zM203 269h93c72 0 130 9 130 77c0 71 -58 79 -130 79h-93v-156z" />
    <glyph glyph-name="ring.case" horiz-adv-x="372" 
d="M186 596c-73 0 -132 60 -132 133s59 132 132 132s133 -59 133 -132s-60 -133 -133 -133zM139 729c0 -26 21 -47 47 -47s47 21 47 47s-21 47 -47 47s-47 -21 -47 -47z" />
    <glyph glyph-name="ae" unicode="&#xe6;" horiz-adv-x="878" 
d="M190 -11c-93 7 -171 56 -171 146c0 83 61 165 329 165v29c0 57 -30 78 -83 78c-42 0 -76 -19 -86 -59l-128 46c33 66 113 116 227 116c70 0 126 -14 164 -48c44 31 99 48 158 48c164 0 266 -125 256 -301h-368c4 -70 59 -103 114 -103c48 0 82 15 102 37l120 -44
c-52 -77 -136 -111 -217 -111c-87 0 -158 28 -207 79c-6 -7 -12 -14 -18 -20c-43 -42 -116 -64 -192 -58zM604 396c-56 0 -108 -29 -117 -97h227c-2 64 -50 97 -110 97zM351 209c-110 1 -175 -9 -175 -61c0 -32 30 -57 70 -57c60 0 105 26 105 117v1z" />
    <glyph glyph-name="ae" unicode="&#xe973;" horiz-adv-x="878" 
d="M190 -11c-93 7 -171 56 -171 146c0 83 61 165 329 165v29c0 57 -30 78 -83 78c-42 0 -76 -19 -86 -59l-128 46c33 66 113 116 227 116c70 0 126 -14 164 -48c44 31 99 48 158 48c164 0 266 -125 256 -301h-368c4 -70 59 -103 114 -103c48 0 82 15 102 37l120 -44
c-52 -77 -136 -111 -217 -111c-87 0 -158 28 -207 79c-6 -7 -12 -14 -18 -20c-43 -42 -116 -64 -192 -58zM604 396c-56 0 -108 -29 -117 -97h227c-2 64 -50 97 -110 97zM351 209c-110 1 -175 -9 -175 -61c0 -32 30 -57 70 -57c60 0 105 26 105 117v1z" />
    <glyph glyph-name="eth" unicode="&#xf0;" horiz-adv-x="585" 
d="M286 -12c-152 0 -262 90 -262 232c0 135 108 232 229 232c66 0 109 -19 143 -49c-1 61 -23 110 -62 144l-63 -64l-48 47l53 53c-32 14 -70 21 -113 21v122c87 0 154 -17 207 -48l56 56l48 -48l-48 -47c4 -3 8 -7 11 -10c89 -89 117 -189 117 -311
c0 -185 -79 -330 -268 -330zM286 338c-66 0 -106 -49 -106 -118c0 -72 40 -119 106 -119c65 0 108 47 108 119s-44 118 -108 118z" />
    <glyph glyph-name="eth" unicode="&#xe97d;" horiz-adv-x="585" 
d="M286 -12c-152 0 -262 90 -262 232c0 135 108 232 229 232c66 0 109 -19 143 -49c-1 61 -23 110 -62 144l-63 -64l-48 47l53 53c-32 14 -70 21 -113 21v122c87 0 154 -17 207 -48l56 56l48 -48l-48 -47c4 -3 8 -7 11 -10c89 -89 117 -189 117 -311
c0 -185 -79 -330 -268 -330zM286 338c-66 0 -106 -49 -106 -118c0 -72 40 -119 106 -119c65 0 108 47 108 119s-44 118 -108 118z" />
    <glyph glyph-name="thorn" unicode="&#xfe;" horiz-adv-x="596" 
d="M50 -161v829h152v-240c32 54 98 82 151 82c128 0 219 -102 219 -263c0 -162 -91 -259 -219 -259c-53 0 -119 28 -151 82v-231h-152zM305 392c-60 0 -110 -40 -110 -141c0 -103 50 -145 110 -145c59 0 109 49 109 141c0 91 -50 145 -109 145z" />
    <glyph glyph-name="thorn" unicode="&#xe98b;" horiz-adv-x="596" 
d="M50 -161v829h152v-240c32 54 98 82 151 82c128 0 219 -102 219 -263c0 -162 -91 -259 -219 -259c-53 0 -119 28 -151 82v-231h-152zM305 392c-60 0 -110 -40 -110 -141c0 -103 50 -145 110 -145c59 0 109 49 109 141c0 91 -50 145 -109 145z" />
    <glyph glyph-name="uni02C9" unicode="&#x2c9;" horiz-adv-x="373" 
d="M336 550h-299v98h299v-98z" />
    <glyph glyph-name="macron.case" horiz-adv-x="348" 
d="M324 747h-299v98h299v-98z" />
    <glyph glyph-name="breve.case" horiz-adv-x="330" 
d="M26 851h85c5 -21 28 -43 58 -43s54 22 59 43h85c-12 -68 -72 -120 -144 -120c-71 0 -131 52 -143 120z" />
    <glyph glyph-name="dotaccent.case" horiz-adv-x="345" 
d="M105 796c0 39 32 71 71 71s70 -32 70 -71s-31 -70 -70 -70s-71 31 -71 70z" />
    <glyph glyph-name="tilde.case" horiz-adv-x="366" 
d="M-2 734c12 73 54 115 125 115c63 0 83 -41 124 -41c19 0 30 7 43 21c12 13 23 20 36 20c34 0 53 -33 36 -63c-21 -37 -67 -57 -109 -57c-24 0 -48 6 -68 16c-24 12 -35 21 -52 22c-24 1 -42 -11 -46 -33h-89z" />
    <glyph glyph-name="hungarumlaut.case" horiz-adv-x="433" 
d="M9 746l109 133c2 1 14 20 43 20c32 0 56 -24 56 -56c0 -17 -7 -32 -19 -42l-75 -55h-114zM325 746h-114l109 133c2 1 14 20 43 20c32 0 56 -24 56 -56c0 -16 -7 -32 -19 -42z" />
    <glyph glyph-name="multiply" unicode="&#xd7;" horiz-adv-x="539" 
d="M498 385l-139 -137l136 -136l-91 -90l-134 136l-135 -136l-91 90l136 136l-139 137l91 91l138 -139l137 139z" />
    <glyph glyph-name="multiply" unicode="&#xe964;" horiz-adv-x="539" 
d="M498 385l-139 -137l136 -136l-91 -90l-134 136l-135 -136l-91 90l136 136l-139 137l91 91l138 -139l137 139z" />
    <glyph glyph-name="divide" unicode="&#xf7;" horiz-adv-x="594" 
d="M41 186v128h512v-128h-512zM297 351c-43 0 -79 36 -79 80s36 79 79 79s79 -35 79 -79s-36 -80 -79 -80zM297 -12c-43 0 -79 36 -79 80c0 43 36 79 79 79s79 -36 79 -79c0 -44 -36 -80 -79 -80z" />
    <glyph glyph-name="divide" unicode="&#xe984;" horiz-adv-x="594" 
d="M41 186v128h512v-128h-512zM297 351c-43 0 -79 36 -79 80s36 79 79 79s79 -35 79 -79s-36 -80 -79 -80zM297 -12c-43 0 -79 36 -79 80c0 43 36 79 79 79s79 -36 79 -79c0 -44 -36 -80 -79 -80z" />
    <glyph glyph-name="OE" unicode="&#x152;" horiz-adv-x="1061" 
d="M381 -12c-205 0 -346 137 -346 346c0 208 141 346 346 346c68 0 129 -15 180 -43v31h478v-140h-356v-115h218v-138h-218v-136h356v-139h-478v31c-51 -28 -112 -43 -180 -43zM381 549c-97 0 -179 -73 -179 -215s82 -216 179 -216c98 0 180 74 180 216s-82 215 -180 215z
" />
    <glyph glyph-name="OE" unicode="&#xe990;" horiz-adv-x="1061" 
d="M381 -12c-205 0 -346 137 -346 346c0 208 141 346 346 346c68 0 129 -15 180 -43v31h478v-140h-356v-115h218v-138h-218v-136h356v-139h-478v31c-51 -28 -112 -43 -180 -43zM381 549c-97 0 -179 -73 -179 -215s82 -216 179 -216c98 0 180 74 180 216s-82 215 -180 215z
" />
    <glyph glyph-name="oe" unicode="&#x153;" horiz-adv-x="937" 
d="M24 250c0 179 125 260 263 260c70 0 139 -22 188 -69c48 44 113 69 185 69c164 0 265 -126 255 -301h-368c5 -70 59 -103 114 -103c49 0 82 14 102 37l121 -44c-52 -77 -136 -111 -218 -111c-79 0 -146 23 -193 67c-49 -46 -117 -67 -186 -67c-138 0 -263 82 -263 262z
M287 392c-60 0 -108 -38 -108 -142s46 -144 108 -144c61 0 107 40 107 144s-48 142 -107 142zM664 396c-57 0 -108 -29 -117 -97h226c-1 64 -49 97 -109 97z" />
    <glyph glyph-name="oe" unicode="&#xe991;" horiz-adv-x="937" 
d="M24 250c0 179 125 260 263 260c70 0 139 -22 188 -69c48 44 113 69 185 69c164 0 265 -126 255 -301h-368c5 -70 59 -103 114 -103c49 0 82 14 102 37l121 -44c-52 -77 -136 -111 -218 -111c-79 0 -146 23 -193 67c-49 -46 -117 -67 -186 -67c-138 0 -263 82 -263 262z
M287 392c-60 0 -108 -38 -108 -142s46 -144 108 -144c61 0 107 40 107 144s-48 142 -107 142zM664 396c-57 0 -108 -29 -117 -97h226c-1 64 -49 97 -109 97z" />
    <glyph glyph-name="Acircumflex" unicode="&#xc2;" horiz-adv-x="690" 
d="M177 0h-172l253 668h174l253 -668h-172l-40 119h-256zM279 731h-129l147 133c13 11 30 19 49 19s36 -7 49 -19l148 -133h-129l-68 61zM260 247h170l-86 254z" />
    <glyph glyph-name="Atilde" unicode="&#xc3;" horiz-adv-x="690" 
d="M177 0h-172l253 668h174l253 -668h-172l-40 119h-256zM155 731c12 73 54 115 125 115c63 0 83 -41 124 -41c19 0 30 7 43 21c12 13 23 20 36 20c34 0 53 -33 36 -63c-21 -37 -67 -57 -109 -57c-24 0 -48 6 -68 16c-24 12 -35 21 -52 22c-24 1 -42 -11 -46 -33h-89z
M344 501l-84 -254h170z" />
    <glyph glyph-name="Adieresis" unicode="&#xc4;" horiz-adv-x="690" 
d="M177 0h-172l253 668h174l253 -668h-172l-40 119h-256zM344 501l-84 -254h170zM178 796c0 39 32 71 71 71s70 -32 70 -71s-31 -70 -70 -70s-71 31 -71 70zM372 796c0 39 32 71 71 71c38 0 69 -32 69 -71s-31 -70 -69 -70c-39 0 -71 31 -71 70z" />
    <glyph glyph-name="Aring" unicode="&#xc5;" horiz-adv-x="690" 
d="M5 0l242 639c-21 24 -34 56 -34 90c0 73 59 132 132 132s133 -59 133 -132c0 -34 -14 -66 -35 -89l242 -640h-172l-40 119h-256l-40 -119h-172zM344 501l-84 -254h170zM298 729c0 -26 21 -47 47 -47s47 21 47 47s-21 47 -47 47s-47 -21 -47 -47z" />
    <glyph glyph-name="Agrave" unicode="&#xc0;" horiz-adv-x="690" 
d="M177 0h-172l253 668h174l253 -668h-172l-40 119h-256zM344 501l-84 -254h170zM195 786c-13 13 -20 24 -20 43c0 29 27 56 56 56c15 0 28 -6 38 -15c1 -1 125 -139 125 -139h-125z" />
    <glyph glyph-name="Aacute" unicode="&#xc1;" horiz-adv-x="690" 
d="M177 0h-172l253 668h174l253 -668h-172l-40 119h-256zM344 501l-84 -254h170zM402 731h-125s119 133 119 134l5 5c10 9 24 15 38 15c31 0 56 -25 56 -56c0 -18 -7 -31 -19 -43z" />
    <glyph glyph-name="agrave" unicode="&#xe0;" horiz-adv-x="548" 
d="M19 134c0 121 137 162 329 176v19c0 57 -30 78 -83 78c-42 0 -76 -19 -86 -59l-128 46c33 66 113 116 227 116c141 0 220 -57 220 -207v-109c0 -65 7 -151 17 -194h-141l-18 60c-37 -52 -95 -72 -166 -72c-94 0 -171 56 -171 146zM176 145c0 -32 30 -53 70 -53
c60 0 105 25 105 116v12c-105 -9 -175 -23 -175 -75zM145 671c0 31 25 57 56 57c15 0 28 -6 38 -15l114 -139h-114l-75 55c-12 12 -19 25 -19 42z" />
    <glyph glyph-name="acircumflex" unicode="&#xe2;" horiz-adv-x="548" 
d="M190 -12c-94 0 -171 56 -171 146c0 121 137 162 329 176v19c0 57 -30 78 -83 78c-42 0 -76 -19 -86 -59l-128 46c33 66 113 116 227 116c141 0 220 -57 220 -207v-109c0 -65 7 -151 17 -194h-141l-18 60c-37 -52 -95 -72 -166 -72zM83 574l147 132c13 12 31 20 50 20
s36 -8 50 -20l146 -132h-128l-68 61l-68 -61h-129zM351 220c-105 -9 -175 -23 -175 -75c0 -32 30 -53 70 -53c60 0 105 25 105 116v12z" />
    <glyph glyph-name="atilde" unicode="&#xe3;" horiz-adv-x="548" 
d="M19 134c0 121 137 162 329 176v19c0 57 -30 78 -83 78c-42 0 -76 -19 -86 -59l-128 46c33 66 113 116 227 116c141 0 220 -57 220 -207v-109c0 -65 7 -151 17 -194h-141l-18 60c-37 -52 -95 -72 -166 -72c-94 0 -171 56 -171 146zM95 574c12 73 54 115 125 115
c63 0 83 -41 124 -41c19 0 30 7 43 21c12 13 23 20 36 20c34 0 53 -33 36 -63c-21 -37 -67 -57 -109 -57c-24 0 -48 6 -68 16c-24 12 -35 21 -52 22c-24 1 -42 -11 -46 -33h-89zM351 220c-105 -9 -175 -23 -175 -75c0 -32 30 -53 70 -53c60 0 105 25 105 116v12z" />
    <glyph glyph-name="adieresis" unicode="&#xe4;" horiz-adv-x="548" 
d="M19 134c0 121 137 162 329 176v19c0 57 -30 78 -83 78c-42 0 -76 -19 -86 -59l-128 46c33 66 113 116 227 116c141 0 220 -57 220 -207v-109c0 -65 7 -151 17 -194h-141l-18 60c-37 -52 -95 -72 -166 -72c-94 0 -171 56 -171 146zM351 220c-105 -9 -175 -23 -175 -75
c0 -32 30 -53 70 -53c60 0 105 25 105 116v12zM117 648c0 39 32 71 71 71s70 -32 70 -71s-31 -70 -70 -70s-71 31 -71 70zM311 648c0 39 32 71 71 71c38 0 69 -32 69 -71s-31 -70 -69 -70c-39 0 -71 31 -71 70z" />
    <glyph glyph-name="aacute" unicode="&#xe1;" horiz-adv-x="548" 
d="M190 -12c-94 0 -171 56 -171 146c0 121 137 162 329 176v19c0 57 -30 78 -83 78c-42 0 -76 -19 -86 -59l-128 46c33 66 113 116 227 116c141 0 220 -57 220 -207v-109c0 -65 7 -151 17 -194h-141l-18 60c-37 -52 -95 -72 -166 -72zM351 220c-105 -9 -175 -23 -175 -75
c0 -32 30 -53 70 -53c60 0 105 25 105 116v12zM345 574h-114l111 135c4 5 17 18 41 18c32 0 56 -24 56 -56c0 -17 -7 -32 -19 -42z" />
    <glyph glyph-name="Ccedilla" unicode="&#xc7;" horiz-adv-x="681" 
d="M35 334c0 211 131 346 338 346c126 0 223 -61 274 -155l-140 -51c-30 54 -85 76 -139 76c-93 0 -166 -80 -166 -216c0 -140 73 -216 168 -216c50 0 111 17 142 75l139 -51c-54 -95 -156 -154 -284 -154l-22 -36c9 2 20 3 34 3c38 0 86 -16 86 -62c0 -58 -63 -80 -127 -80
c-32 0 -63 5 -88 13l16 50c11 -6 37 -13 61 -13s44 7 44 27c0 16 -15 26 -37 26c-8 0 -18 -2 -27 -5c-6 -2 -12 -1 -17 2c-10 5 -14 18 -8 28l31 50c-174 22 -278 150 -278 343z" />
    <glyph glyph-name="ccedilla" unicode="&#xe7;" horiz-adv-x="520" 
d="M229 -9c-133 20 -205 119 -205 260c0 156 103 259 254 259c85 0 178 -32 224 -130l-127 -46c-16 42 -50 58 -88 58c-55 0 -108 -37 -108 -142c0 -108 54 -144 108 -144c42 0 72 18 89 47l124 -45c-50 -88 -139 -119 -217 -120l-22 -35c9 2 20 3 34 3c38 0 86 -16 86 -62
c0 -58 -63 -80 -127 -80c-32 0 -63 5 -88 13l16 50c11 -6 37 -13 61 -13s44 7 44 27c0 16 -15 26 -37 26c-8 0 -18 -2 -27 -5c-6 -2 -12 -1 -17 2c-10 5 -14 18 -8 28z" />
    <glyph glyph-name="Egrave" unicode="&#xc8;" horiz-adv-x="580" 
d="M44 0v668h514v-139h-356v-116h217v-139h-217v-135h356v-139h-514zM166 829c0 29 27 56 56 56c15 0 28 -6 38 -15c1 -1 125 -139 125 -139h-125l-74 55c-13 13 -20 24 -20 43z" />
    <glyph glyph-name="Eacute" unicode="&#xc9;" horiz-adv-x="580" 
d="M558 0h-514v668h514v-139h-356v-116h217v-139h-217v-135h356v-139zM220 731c0 0 119 133 119 134l5 5c10 9 24 15 38 15c31 0 56 -25 56 -56c0 -18 -7 -31 -19 -43l-74 -55h-125z" />
    <glyph glyph-name="egrave" unicode="&#xe8;" horiz-adv-x="566" 
d="M24 251c0 158 121 259 266 259c163 0 264 -125 254 -300h-367c5 -70 59 -104 115 -104c47 0 81 15 100 37l121 -44c-52 -76 -136 -111 -217 -111c-161 0 -272 99 -272 263zM177 300h226c-2 64 -50 97 -109 97c-57 0 -108 -29 -117 -97zM159 629c-12 12 -19 25 -19 42
c0 31 25 57 56 57c15 0 28 -6 38 -15l114 -139h-114z" />
    <glyph glyph-name="eacute" unicode="&#xe9;" horiz-adv-x="566" 
d="M24 251c0 158 121 259 266 259c163 0 264 -125 254 -300h-367c5 -70 59 -104 115 -104c47 0 81 15 100 37l121 -44c-52 -76 -136 -111 -217 -111c-161 0 -272 99 -272 263zM177 300h226c-2 64 -50 97 -109 97c-57 0 -108 -29 -117 -97zM233 574l111 135c4 5 17 18 41 18
c32 0 56 -24 56 -56c0 -17 -7 -32 -19 -42l-75 -55h-114z" />
    <glyph glyph-name="Iacute" unicode="&#xcd;" horiz-adv-x="458" 
d="M57 668h344v-124h-92v-420h92v-124h-344v124h94v420h-94v124zM288 731h-125s119 133 119 134l5 5c10 9 24 15 38 15c31 0 56 -25 56 -56c0 -18 -7 -31 -19 -43z" />
    <glyph glyph-name="igrave" unicode="&#xec;" horiz-adv-x="301" 
d="M118 381h-94v115h247v-496h-153v381zM47 671c0 31 25 57 56 57c15 0 28 -6 38 -15l114 -139h-114l-75 55c-12 12 -19 25 -19 42z" />
    <glyph glyph-name="iacute" unicode="&#xed;" horiz-adv-x="301" 
d="M118 381h-94v115h247v-496h-153v381zM124 574l111 135c4 5 17 18 41 18c32 0 56 -24 56 -56c0 -17 -7 -32 -19 -42l-75 -55h-114z" />
    <glyph glyph-name="icircumflex" unicode="&#xee;" horiz-adv-x="301" 
d="M118 381h-94v115h247v-496h-153v381zM115 574h-129l147 132c13 12 31 20 50 20s36 -8 50 -20l146 -132h-128l-68 61z" />
    <glyph glyph-name="Ntilde" unicode="&#xd1;" horiz-adv-x="700" 
d="M44 668h201l258 -476v476h153v-668h-202l-258 476v-476h-152v668zM247 731h-89c12 73 54 115 125 115c63 0 83 -41 124 -41c19 0 30 7 43 21c12 13 23 20 36 20c34 0 53 -33 36 -63c-21 -37 -67 -57 -109 -57c-24 0 -48 6 -68 16c-24 12 -35 21 -52 22
c-24 1 -42 -11 -46 -33z" />
    <glyph glyph-name="Yacute" unicode="&#xdd;" horiz-adv-x="687" 
d="M265 260l-255 408h184l149 -257l149 257h185l-255 -408v-260h-157v260zM406 731h-125s119 133 119 134l5 5c10 9 24 15 38 15c31 0 56 -25 56 -56c0 -18 -7 -31 -19 -43z" />
    <glyph glyph-name="ntilde" unicode="&#xf1;" horiz-adv-x="572" 
d="M50 0v496h133l19 -66c22 37 77 80 153 80c128 0 167 -74 167 -208v-302h-152v264c0 70 -3 128 -76 128c-64 0 -92 -47 -92 -137v-255h-152zM96 574c12 73 54 115 125 115c63 0 83 -41 124 -41c19 0 30 7 43 21c12 13 23 20 36 20c34 0 53 -33 36 -63
c-21 -37 -67 -57 -109 -57c-24 0 -48 6 -68 16c-24 12 -35 21 -52 22c-24 1 -42 -11 -46 -33h-89z" />
    <glyph glyph-name="ograve" unicode="&#xf2;" horiz-adv-x="573" 
d="M24 250c0 179 125 260 263 260c136 0 262 -81 262 -260s-126 -262 -262 -262c-138 0 -263 83 -263 262zM179 250c0 -104 46 -144 108 -144c61 0 107 40 107 144c0 105 -48 142 -107 142c-60 0 -108 -37 -108 -142zM135 671c0 31 25 57 56 57c15 0 28 -6 38 -15l114 -139
h-114l-75 55c-12 12 -19 25 -19 42z" />
    <glyph glyph-name="oacute" unicode="&#xf3;" horiz-adv-x="573" 
d="M24 250c0 179 125 260 263 260c136 0 262 -81 262 -260s-126 -262 -262 -262c-138 0 -263 83 -263 262zM179 250c0 -104 46 -144 108 -144c61 0 107 40 107 144c0 105 -48 142 -107 142c-60 0 -108 -37 -108 -142zM343 574h-114l111 135c4 5 17 18 41 18
c32 0 56 -24 56 -56c0 -17 -7 -32 -19 -42z" />
    <glyph glyph-name="yacute" unicode="&#xfd;" horiz-adv-x="518" 
d="M0 496h163l97 -310l95 310h163l-190 -496c-48 -126 -85 -161 -214 -161h-49v110h30c64 0 75 3 90 41l5 13zM315 574h-114l111 135c4 5 17 18 41 18c32 0 56 -24 56 -56c0 -17 -7 -32 -19 -42z" />
    <glyph glyph-name="ydieresis" unicode="&#xff;" horiz-adv-x="518" 
d="M0 496h163l97 -310l95 310h163l-190 -496c-48 -126 -85 -161 -214 -161h-49v110h30c64 0 75 3 90 41l5 13zM163 578c-39 0 -71 31 -71 70s32 71 71 71s70 -32 70 -71s-31 -70 -70 -70zM357 578c-39 0 -71 31 -71 70s32 71 71 71c38 0 69 -32 69 -71s-31 -70 -69 -70z" />
    <glyph glyph-name="Ydieresis" unicode="&#x178;" horiz-adv-x="687" 
d="M265 260l-255 408h184l149 -257l149 257h185l-255 -408v-260h-157v260zM177 796c0 39 32 71 71 71s70 -32 70 -71s-31 -70 -70 -70s-71 31 -71 70zM371 796c0 39 32 71 71 71c38 0 69 -32 69 -71s-31 -70 -69 -70c-39 0 -71 31 -71 70z" />
    <glyph glyph-name="Eth" unicode="&#xd0;" horiz-adv-x="769" 
d="M13 412h118v256h220c218 0 387 -80 387 -334c0 -255 -169 -334 -387 -334h-220v275h-118v137zM289 412h77v-137h-77v-142h65c115 0 221 25 221 201s-106 203 -221 203h-65v-125z" />
    <glyph glyph-name="zero.tf" 
d="M30 335c0 214 99 345 286 345c188 0 287 -131 287 -345c0 -213 -99 -347 -287 -347c-187 0 -286 134 -286 347zM194 431c-5 -28 -8 -59 -8 -96c0 -161 53 -234 130 -234c32 0 60 12 81 38zM316 567c-30 0 -56 -11 -77 -33l201 -288c4 26 6 56 6 88
c0 162 -52 233 -130 233z" />
    <glyph glyph-name="one.tf" 
d="M253 448h-152v123c105 0 152 7 188 97h115v-544h128v-124h-431v124h152v324z" />
    <glyph glyph-name="two.tf" 
d="M60 125l43 31c113 79 314 219 314 332c0 52 -43 79 -92 79c-42 0 -87 -20 -102 -82l-138 50c36 93 129 145 247 145c136 0 238 -70 238 -195c0 -135 -120 -246 -316 -360h319v-125h-513v125z" />
    <glyph glyph-name="three.tf" 
d="M56 140l138 50c17 -65 69 -89 124 -89c63 0 103 32 103 87c0 82 -87 103 -187 103v106c115 0 179 33 179 92c0 52 -49 78 -104 78c-49 0 -96 -21 -109 -82l-137 50c39 102 145 145 255 145c122 0 248 -53 248 -173c0 -72 -46 -128 -93 -155c66 -25 104 -96 104 -157
c0 -139 -126 -207 -263 -207c-113 0 -217 46 -258 152z" />
    <glyph glyph-name="four.tf" 
d="M32 252l325 416h152v-393h92v-134h-92v-141h-152v141h-325v111zM357 469l-160 -194h160v194z" />
    <glyph glyph-name="five.tf" 
d="M308 -12c-116 0 -212 52 -254 151l132 48c19 -65 65 -86 114 -86c70 0 121 42 121 120c0 82 -56 120 -118 120c-49 0 -87 -23 -110 -65l-135 50l42 342h447v-124h-321l-15 -125c31 22 86 35 133 35c119 0 234 -78 234 -233c0 -153 -126 -233 -270 -233z" />
    <glyph glyph-name="six.tf" 
d="M51 322c0 192 82 358 289 358c101 0 169 -39 204 -97l-136 -49c-13 23 -43 36 -78 36c-71 0 -120 -53 -120 -167c33 30 77 49 143 49c120 0 228 -97 228 -235c0 -139 -109 -229 -260 -229c-191 0 -270 145 -270 334zM212 220c0 -72 42 -119 108 -119c65 0 105 47 105 118
c0 70 -40 119 -106 119c-64 0 -107 -46 -107 -118z" />
    <glyph glyph-name="seven.tf" 
d="M309 0h-175l271 543h-339v125h500v-125z" />
    <glyph glyph-name="eight.tf" 
d="M316 -12c-157 0 -275 77 -275 219c0 81 39 129 114 170c-20 32 -32 69 -32 110c0 106 79 193 193 193s192 -87 192 -193c0 -41 -12 -78 -33 -109c75 -42 115 -90 115 -172c0 -141 -118 -218 -274 -218zM198 206c0 -55 48 -92 118 -92c68 0 117 38 117 92
c0 56 -49 88 -117 88c-70 0 -118 -32 -118 -88zM316 555c-38 0 -69 -30 -69 -69c0 -38 31 -69 69 -69c37 0 67 31 67 69c0 39 -29 69 -67 69z" />
    <glyph glyph-name="nine.tf" 
d="M77 441c0 131 106 238 237 238c132 0 241 -108 241 -240c0 -35 -8 -70 -24 -104l-162 -335h-160l108 202c-132 0 -240 105 -240 239zM212 431c5 -55 52 -96 105 -96c57 0 104 47 104 104c0 2 0 4 -1 6v5c-6 54 -51 94 -104 94h-9c-55 -5 -95 -51 -95 -104v-9z" />
    <glyph glyph-name="ogonek.case" horiz-adv-x="263" 
d="M175 -174c-108 0 -142 51 -142 89c0 46 41 73 80 85h141c-39 -5 -95 -34 -95 -68c0 -24 24 -30 46 -30c20 0 41 7 49 9v-75c-15 -5 -54 -10 -79 -10z" />
    <glyph glyph-name="Aogonek" unicode="&#x104;" horiz-adv-x="690" 
d="M5 0l253 668h174l253 -668h-30c-39 -5 -95 -34 -95 -68c0 -24 24 -30 46 -30c20 0 41 7 49 9v-75c-15 -5 -54 -10 -79 -10c-108 0 -142 51 -142 89c0 46 41 73 80 85h-1l-40 119h-256l-40 -119h-172zM260 247h170l-86 254z" />
    <glyph glyph-name="edotaccent" unicode="&#x117;" horiz-adv-x="566" 
d="M24 251c0 158 121 259 266 259c163 0 264 -125 254 -300h-367c5 -70 59 -104 115 -104c47 0 81 15 100 37l121 -44c-52 -76 -136 -111 -217 -111c-161 0 -272 99 -272 263zM294 397c-57 0 -108 -29 -117 -97h226c-2 64 -50 97 -109 97zM219 654c0 39 32 71 71 71
s70 -32 70 -71s-31 -70 -70 -70s-71 31 -71 70z" />
    <glyph glyph-name="Eogonek" unicode="&#x118;" horiz-adv-x="580" 
d="M44 0v668h514v-139h-356v-116h217v-139h-217v-135h356v-139h-37c-39 -5 -95 -34 -95 -68c0 -24 24 -30 46 -30c20 0 41 7 49 9v-75c-15 -5 -54 -10 -79 -10c-108 0 -142 51 -142 89c0 46 41 73 80 85h-336z" />
    <glyph glyph-name="eogonek" unicode="&#x119;" horiz-adv-x="566" 
d="M24 251c0 158 121 259 266 259c163 0 264 -125 254 -300h-367c5 -70 59 -104 115 -104c47 0 81 15 100 37l121 -44c-29 -43 -69 -73 -113 -91c-45 -22 -88 -47 -88 -76c0 -24 24 -30 46 -30c20 0 41 7 49 9v-75c-15 -5 -54 -10 -79 -10c-108 0 -142 51 -142 89
c0 37 27 62 58 77c-132 19 -220 113 -220 259zM177 300h226c-2 64 -50 97 -109 97c-57 0 -108 -29 -117 -97z" />
    <glyph glyph-name="ecaron" unicode="&#x11b;" horiz-adv-x="566" 
d="M24 251c0 158 121 259 266 259c163 0 264 -125 254 -300h-367c5 -70 59 -104 115 -104c47 0 81 15 100 37l121 -44c-52 -76 -136 -111 -217 -111c-161 0 -272 99 -272 263zM93 720h129l68 -61l68 61h128l-146 -133c-14 -12 -31 -19 -50 -19s-37 7 -50 19zM177 300h226
c-2 64 -50 97 -109 97c-57 0 -108 -29 -117 -97z" />
    <glyph glyph-name="Iogonek" unicode="&#x12e;" horiz-adv-x="458" 
d="M166 0h-109v124h94v420h-94v124h344v-124h-92v-420h92v-124h-94c-39 -5 -95 -34 -95 -68c0 -24 24 -30 46 -30c20 0 41 7 49 9v-75c-15 -5 -54 -10 -79 -10c-108 0 -142 51 -142 89c0 46 41 73 80 85z" />
    <glyph glyph-name="iogonek" unicode="&#x12f;" horiz-adv-x="315" 
d="M24 380v116h247v-496h-10c-46 -23 -95 -44 -95 -68s24 -30 46 -30c20 0 41 7 49 9v-75c-15 -5 -54 -10 -79 -10c-108 0 -142 51 -142 89c0 46 41 73 80 85h-2v380h-94zM195 578c-50 0 -90 41 -90 90c0 50 40 90 90 90s90 -40 90 -90c0 -49 -40 -90 -90 -90z" />
    <glyph glyph-name="Cacute" unicode="&#x106;" horiz-adv-x="681" 
d="M35 334c0 211 131 346 338 346c126 0 223 -61 274 -155l-140 -51c-30 54 -85 76 -139 76c-93 0 -166 -80 -166 -216c0 -140 73 -216 168 -216c50 0 111 17 142 75l139 -51c-54 -95 -156 -154 -282 -154c-208 0 -334 133 -334 346zM430 731h-125s119 133 119 134l5 5
c10 9 24 15 38 15c31 0 56 -25 56 -56c0 -18 -7 -31 -19 -43z" />
    <glyph glyph-name="cacute" unicode="&#x107;" horiz-adv-x="520" 
d="M278 -12c-164 0 -254 106 -254 263c0 156 103 259 254 259c85 0 178 -32 224 -130l-127 -46c-16 42 -50 58 -88 58c-55 0 -108 -37 -108 -142c0 -108 54 -144 108 -144c42 0 72 18 89 47l124 -45c-51 -90 -143 -120 -222 -120zM332 574h-114l111 135c4 5 17 18 41 18
c32 0 56 -24 56 -56c0 -17 -7 -32 -19 -42z" />
    <glyph glyph-name="uni0326" unicode="&#x326;" horiz-adv-x="280" 
d="M76 -251l-52 45c63 0 102 22 102 61c0 28 -30 51 -68 60l102 40c62 -25 84 -60 84 -96c0 -62 -60 -110 -168 -110z" />
    <glyph glyph-name="Nacute" unicode="&#x143;" horiz-adv-x="700" 
d="M44 0v668h201l258 -476v476h153v-668h-202l-258 476v-476h-152zM437 731h-125s119 133 119 134l5 5c10 9 24 15 38 15c31 0 56 -25 56 -56c0 -18 -7 -31 -19 -43z" />
    <glyph glyph-name="nacute" unicode="&#x144;" horiz-adv-x="572" 
d="M50 496h133l19 -66c22 37 77 80 153 80c128 0 167 -74 167 -208v-302h-152v264c0 70 -3 128 -76 128c-64 0 -92 -47 -92 -137v-255h-152v496zM346 574h-114l111 135c4 5 17 18 41 18c32 0 56 -24 56 -56c0 -17 -7 -32 -19 -42z" />
    <glyph glyph-name="Ncaron" unicode="&#x147;" horiz-adv-x="700" 
d="M196 0h-152v668h201l258 -476v476h153v-668h-202l-258 476v-476zM301 744l-147 133h129l68 -61l68 61h128l-146 -133c-14 -12 -31 -19 -50 -19s-37 7 -50 19z" />
    <glyph glyph-name="ncaron" unicode="&#x148;" horiz-adv-x="572" 
d="M50 496h133l19 -66c22 37 77 80 153 80c128 0 167 -74 167 -208v-302h-152v264c0 70 -3 128 -76 128c-64 0 -92 -47 -92 -137v-255h-152v496zM237 587l-147 133h129l68 -61l68 61h128l-146 -133c-14 -12 -31 -19 -50 -19s-37 7 -50 19z" />
    <glyph glyph-name="Hbar" unicode="&#x126;" horiz-adv-x="740" 
d="M15 496v98h60v74h158v-74h275v74h158v-74h59v-98h-60l1 -496h-158v274h-275v-274h-158v496h-60zM508 496h-275v-83h275v83z" />
    <glyph glyph-name="hbar" unicode="&#x127;" horiz-adv-x="590" 
d="M-26 555v78h94v65h152v-65h123v-78h-123v-125c22 37 77 80 153 80c128 0 167 -74 167 -208v-302h-152v264c0 70 -3 128 -76 128c-64 0 -92 -47 -92 -137v-255h-152v555h-94z" />
    <glyph glyph-name="uni0123" unicode="&#x123;" horiz-adv-x="597" 
d="M415 496h131v-459c0 -84 -23 -172 -119 -215c-72 -32 -277 -59 -354 93l124 45c28 -56 109 -52 145 -38c41 14 53 50 53 85v89c-126 -155 -371 -67 -371 163c0 277 271 313 371 169zM292 136c59 0 109 30 109 127s-50 129 -109 129c-60 0 -110 -38 -110 -125
c0 -88 50 -131 110 -131zM358 774l52 -45c-63 0 -102 -21 -102 -61c0 -28 30 -51 68 -59l-102 -41c-62 25 -84 60 -84 96c0 62 60 110 168 110z" />
    <glyph glyph-name="uni013B" unicode="&#x13b;" horiz-adv-x="537" 
d="M202 139h320v-139h-478v668h158v-529zM242 -252l-52 45c63 0 102 22 102 61c0 28 -30 51 -68 60l102 40c62 -25 84 -60 84 -96c0 -62 -60 -110 -168 -110z" />
    <glyph glyph-name="uni013C" unicode="&#x13c;" horiz-adv-x="314" 
d="M268 124h43v-124h-97c-122 0 -164 23 -164 140v528h152v-488c0 -47 15 -56 66 -56zM74 -251l-52 45c63 0 102 22 102 61c0 28 -30 51 -68 60l102 40c62 -25 84 -60 84 -96c0 -62 -60 -110 -168 -110z" />
    <glyph glyph-name="caron.salt" horiz-adv-x="205" 
d="M120 496h-80l24 145c5 31 33 47 56 47c34 0 55 -30 55 -57c0 -6 -1 -12 -3 -17z" />
    <glyph glyph-name="lcaron" unicode="&#x13e;" horiz-adv-x="314" 
d="M214 0c-122 0 -164 23 -164 140v528h152v-488c0 -47 15 -56 66 -56h43v-124h-97zM233 497l24 145c5 31 33 47 56 47c34 0 55 -30 55 -57c0 -6 -1 -12 -3 -17l-52 -118h-80z" />
    <glyph glyph-name="Lcaron" unicode="&#x13d;" horiz-adv-x="537" 
d="M44 668h158v-529h320v-139h-478v668zM234 503l24 145c5 31 33 47 56 47c34 0 55 -30 55 -57c0 -6 -1 -12 -3 -17l-52 -118h-80z" />
    <glyph glyph-name="uni0145" unicode="&#x145;" horiz-adv-x="700" 
d="M454 0l-258 476v-476h-152v668h201l258 -476v476h153v-668h-202zM263 -251l-52 45c63 0 102 22 102 61c0 28 -30 51 -68 60l102 40c62 -25 84 -60 84 -96c0 -62 -60 -110 -168 -110z" />
    <glyph glyph-name="uni0146" unicode="&#x146;" horiz-adv-x="572" 
d="M355 510c128 0 167 -74 167 -208v-302h-152v264c0 70 -3 128 -76 128c-64 0 -92 -47 -92 -137v-255h-152v496h133l19 -66c22 37 77 80 153 80zM206 -251l-52 45c63 0 102 22 102 61c0 28 -30 51 -68 60l102 40c62 -25 84 -60 84 -96c0 -62 -60 -110 -168 -110z" />
    <glyph glyph-name="Dcroat" unicode="&#x110;" horiz-adv-x="781" 
d="M25 412h118v256h220c218 0 387 -80 387 -334c0 -255 -169 -334 -387 -334h-220v275h-118v137zM301 412h77v-137h-77v-142h65c115 0 221 25 221 201s-106 203 -221 203h-65v-125z" />
    <glyph glyph-name="dcroat" unicode="&#x111;" horiz-adv-x="593" 
d="M243 -12c-128 0 -219 102 -219 264s91 258 219 258c54 0 119 -27 151 -82v127h-151v78h151v65h152v-65h66v-78h-66v-361c0 -50 3 -121 17 -194h-145l-20 67c-42 -57 -101 -79 -155 -79zM182 252c0 -92 50 -146 110 -146c59 0 109 40 109 143c0 101 -50 143 -109 143
c-60 0 -110 -49 -110 -140z" />
    <glyph glyph-name="uni0136" unicode="&#x136;" horiz-adv-x="659" 
d="M372 382l277 -382h-183l-196 272l-68 -75v-197h-158v668h158v-265l241 265h193zM230 -251l-52 45c63 0 102 22 102 61c0 28 -30 51 -68 60l102 40c62 -25 84 -60 84 -96c0 -62 -60 -110 -168 -110z" />
    <glyph glyph-name="uni0137" unicode="&#x137;" horiz-adv-x="567" 
d="M354 289l209 -289h-180l-129 180l-52 -55v-125h-152v668h152v-360l166 188h180zM204 -251l-52 45c63 0 102 22 102 61c0 28 -30 51 -68 60l102 40c62 -25 84 -60 84 -96c0 -62 -60 -110 -168 -110z" />
    <glyph glyph-name="uni0122" unicode="&#x122;" horiz-adv-x="719" 
d="M375 250v128h308v-378h-104l-22 74c-43 -58 -109 -86 -205 -86c-196 0 -317 135 -317 348c0 211 138 344 340 344c117 0 216 -47 269 -138l-136 -56c-22 35 -66 64 -135 64c-95 0 -171 -73 -171 -214c0 -140 70 -218 174 -218c73 0 149 28 149 113v19h-150zM300 -251
l-52 45c63 0 102 22 102 61c0 28 -30 51 -68 60l102 40c62 -25 84 -60 84 -96c0 -62 -60 -110 -168 -110z" />
    <glyph glyph-name="Amacron" unicode="&#x100;" horiz-adv-x="690" 
d="M5 0l253 668h174l253 -668h-172l-40 119h-256l-40 -119h-172zM196 746v98h299v-98h-299zM344 501l-84 -254h170z" />
    <glyph glyph-name="aring" unicode="&#xe5;" horiz-adv-x="548" 
d="M19 134c0 121 137 162 329 176v19c0 57 -30 78 -83 78c-42 0 -76 -19 -86 -59l-128 46c33 66 113 116 227 116c141 0 220 -57 220 -207v-109c0 -65 7 -151 17 -194h-141l-18 60c-37 -52 -95 -72 -166 -72c-94 0 -171 56 -171 146zM287 535c-73 0 -132 60 -132 133
s59 132 132 132s133 -59 133 -132s-60 -133 -133 -133zM351 220c-105 -9 -175 -23 -175 -75c0 -32 30 -53 70 -53c60 0 105 25 105 116v12zM240 668c0 -26 21 -47 47 -47s47 21 47 47s-21 47 -47 47s-47 -21 -47 -47z" />
    <glyph glyph-name="Ecircumflex" unicode="&#xca;" horiz-adv-x="580" 
d="M44 668h514v-139h-356v-116h217v-139h-217v-135h356v-139h-514v668zM105 731l147 133c13 11 30 19 49 19s36 -7 49 -19l148 -133h-129l-68 61l-67 -61h-129z" />
    <glyph glyph-name="Edieresis" unicode="&#xcb;" horiz-adv-x="580" 
d="M44 668h514v-139h-356v-116h217v-139h-217v-135h356v-139h-514v668zM134 796c0 39 32 71 71 71s70 -32 70 -71s-31 -70 -70 -70s-71 31 -71 70zM399 726c-39 0 -71 31 -71 70s32 71 71 71c38 0 69 -32 69 -71s-31 -70 -69 -70z" />
    <glyph glyph-name="Icircumflex" unicode="&#xce;" horiz-adv-x="458" 
d="M401 0h-344v124h94v420h-94v124h344v-124h-92v-420h92v-124zM33 731l147 133c13 11 30 19 49 19s36 -7 49 -19l148 -133h-129l-68 61l-67 -61h-129z" />
    <glyph glyph-name="Idieresis" unicode="&#xcf;" horiz-adv-x="458" 
d="M57 0v124h94v420h-94v124h344v-124h-92v-420h92v-124h-344zM62 796c0 39 32 71 71 71s70 -32 70 -71s-31 -70 -70 -70s-71 31 -71 70zM327 726c-39 0 -71 31 -71 70s32 71 71 71c38 0 69 -32 69 -71s-31 -70 -69 -70z" />
    <glyph glyph-name="Ocircumflex" unicode="&#xd4;" horiz-adv-x="764" 
d="M35 334c0 208 141 346 346 346s348 -138 348 -346s-143 -346 -348 -346s-346 138 -346 346zM202 334c0 -142 82 -216 179 -216c98 0 180 74 180 216s-82 216 -180 216c-97 0 -179 -74 -179 -216zM316 731h-129l147 133c13 11 30 19 49 19s36 -7 49 -19l148 -133h-129
l-68 61z" />
    <glyph glyph-name="Otilde" unicode="&#xd5;" horiz-adv-x="764" 
d="M35 334c0 208 141 346 346 346s348 -138 348 -346s-143 -346 -348 -346s-346 138 -346 346zM381 550c-97 0 -179 -74 -179 -216s82 -216 179 -216c98 0 180 74 180 216s-82 216 -180 216zM281 734h-89c12 73 54 115 125 115c63 0 83 -41 124 -41c19 0 30 7 43 21
c12 13 23 20 36 20c34 0 53 -33 36 -63c-21 -37 -67 -57 -109 -57c-24 0 -48 6 -68 16c-24 12 -35 21 -52 22c-24 1 -42 -11 -46 -33z" />
    <glyph glyph-name="Odieresis" unicode="&#xd6;" horiz-adv-x="764" 
d="M35 334c0 208 141 346 346 346s348 -138 348 -346s-143 -346 -348 -346s-346 138 -346 346zM202 334c0 -142 82 -216 179 -216c98 0 180 74 180 216s-82 216 -180 216c-97 0 -179 -74 -179 -216zM215 796c0 39 32 71 71 71s70 -32 70 -71s-31 -70 -70 -70s-71 31 -71 70z
M480 726c-39 0 -71 31 -71 70s32 71 71 71c38 0 69 -32 69 -71s-31 -70 -69 -70z" />
    <glyph glyph-name="Ecaron" unicode="&#x11a;" horiz-adv-x="580" 
d="M44 0v668h514v-139h-356v-116h217v-139h-217v-135h356v-139h-514zM252 744l-147 133h129l68 -61l68 61h128l-146 -133c-14 -12 -31 -19 -50 -19s-37 7 -50 19z" />
    <glyph glyph-name="ocircumflex" unicode="&#xf4;" horiz-adv-x="573" 
d="M24 250c0 179 125 260 263 260c136 0 262 -81 262 -260s-126 -262 -262 -262c-138 0 -263 83 -263 262zM287 392c-60 0 -108 -37 -108 -142c0 -104 46 -144 108 -144c61 0 107 40 107 144c0 105 -48 142 -107 142zM219 574h-129l147 132c13 12 31 20 50 20s36 -8 50 -20
l146 -132h-128l-68 61z" />
    <glyph glyph-name="otilde" unicode="&#xf5;" horiz-adv-x="573" 
d="M24 250c0 179 125 260 263 260c136 0 262 -81 262 -260s-126 -262 -262 -262c-138 0 -263 83 -263 262zM179 250c0 -104 46 -144 108 -144c61 0 107 40 107 144c0 105 -48 142 -107 142c-60 0 -108 -37 -108 -142zM96 574c12 73 54 115 125 115c63 0 83 -41 124 -41
c19 0 30 7 43 21c12 13 23 20 36 20c34 0 53 -33 36 -63c-21 -37 -67 -57 -109 -57c-24 0 -48 6 -68 16c-24 12 -35 21 -52 22c-24 1 -42 -11 -46 -33h-89z" />
    <glyph glyph-name="odieresis" unicode="&#xf6;" horiz-adv-x="573" 
d="M24 250c0 179 125 260 263 260c136 0 262 -81 262 -260s-126 -262 -262 -262c-138 0 -263 83 -263 262zM179 250c0 -104 46 -144 108 -144c61 0 107 40 107 144c0 105 -48 142 -107 142c-60 0 -108 -37 -108 -142zM190 578c-39 0 -71 31 -71 70s32 71 71 71
s70 -32 70 -71s-31 -70 -70 -70zM384 578c-39 0 -71 31 -71 70s32 71 71 71c38 0 69 -32 69 -71s-31 -70 -69 -70z" />
    <glyph glyph-name="ecircumflex" unicode="&#xea;" horiz-adv-x="566" 
d="M24 251c0 158 121 259 266 259c163 0 264 -125 254 -300h-367c5 -70 59 -104 115 -104c47 0 81 15 100 37l121 -44c-52 -76 -136 -111 -217 -111c-161 0 -272 99 -272 263zM93 574l147 132c13 12 31 20 50 20s36 -8 50 -20l146 -132h-128l-68 61l-68 -61h-129zM294 397
c-57 0 -108 -29 -117 -97h226c-2 64 -50 97 -109 97z" />
    <glyph glyph-name="edieresis" unicode="&#xeb;" horiz-adv-x="566" 
d="M24 251c0 158 121 259 266 259c163 0 264 -125 254 -300h-367c5 -70 59 -104 115 -104c47 0 81 15 100 37l121 -44c-52 -76 -136 -111 -217 -111c-161 0 -272 99 -272 263zM177 300h226c-2 64 -50 97 -109 97c-57 0 -108 -29 -117 -97zM114 648c0 39 32 71 71 71
s70 -32 70 -71s-31 -70 -70 -70s-71 31 -71 70zM379 578c-39 0 -71 31 -71 70s32 71 71 71c38 0 69 -32 69 -71s-31 -70 -69 -70z" />
    <glyph glyph-name="aogonek" unicode="&#x105;" horiz-adv-x="548" 
d="M19 134c0 121 137 162 329 176v19c0 57 -30 78 -83 78c-42 0 -76 -19 -86 -59l-128 46c33 66 113 116 227 116c141 0 220 -57 220 -207v-109c0 -65 7 -151 17 -194c-46 -23 -95 -44 -95 -68s24 -30 46 -30c20 0 41 7 49 9v-75c-15 -5 -54 -10 -79 -10
c-108 0 -142 51 -142 89c0 46 41 73 80 85l-18 60c-37 -52 -95 -72 -166 -72c-94 0 -171 56 -171 146zM351 220c-105 -9 -175 -23 -175 -75c0 -32 30 -53 70 -53c60 0 105 25 105 116v12z" />
    <glyph glyph-name="Igrave" unicode="&#xcc;" horiz-adv-x="458" 
d="M57 668h344v-124h-92v-420h92v-124h-344v124h94v420h-94v124zM79 829c0 29 27 56 56 56c15 0 28 -6 38 -15c1 -1 125 -139 125 -139h-125l-74 55c-13 13 -20 24 -20 43z" />
    <glyph glyph-name="idieresis" unicode="&#xef;" horiz-adv-x="301" 
d="M118 381h-94v115h247v-496h-153v381zM3 648c0 39 32 71 71 71s70 -32 70 -71s-31 -70 -70 -70s-71 31 -71 70zM268 578c-39 0 -71 31 -71 70s32 71 71 71c38 0 69 -32 69 -71s-31 -70 -69 -70z" />
    <glyph glyph-name="Ograve" unicode="&#xd2;" horiz-adv-x="764" 
d="M381 -12c-205 0 -346 138 -346 346s141 346 346 346s348 -138 348 -346s-143 -346 -348 -346zM202 334c0 -142 82 -216 179 -216c98 0 180 74 180 216s-82 216 -180 216c-97 0 -179 -74 -179 -216zM246 786c-13 13 -20 24 -20 43c0 29 27 56 56 56c15 0 28 -6 38 -15
c1 -1 125 -139 125 -139h-125z" />
    <glyph glyph-name="Oacute" unicode="&#xd3;" horiz-adv-x="764" 
d="M381 -12c-205 0 -346 138 -346 346s141 346 346 346s348 -138 348 -346s-143 -346 -348 -346zM202 334c0 -142 82 -216 179 -216c98 0 180 74 180 216s-82 216 -180 216c-97 0 -179 -74 -179 -216zM320 731c0 0 119 133 119 134l5 5c10 9 24 15 38 15c31 0 56 -25 56 -56
c0 -18 -7 -31 -19 -43l-74 -55h-125z" />
    <glyph glyph-name="Ugrave" unicode="&#xd9;" horiz-adv-x="657" 
d="M41 292v376h158v-389c0 -99 19 -162 130 -162c110 0 129 63 129 162v389h158v-376c0 -206 -80 -304 -287 -304c-209 0 -288 98 -288 304zM172 829c0 29 27 56 56 56c15 0 28 -6 38 -15c1 -1 125 -139 125 -139h-125l-74 55c-13 13 -20 24 -20 43z" />
    <glyph glyph-name="Uacute" unicode="&#xda;" horiz-adv-x="657" 
d="M41 668h158v-389c0 -99 19 -162 130 -162c110 0 129 63 129 162v389h158v-376c0 -206 -80 -304 -287 -304c-209 0 -288 98 -288 304v376zM391 731h-125s119 133 119 134l5 5c10 9 24 15 38 15c31 0 56 -25 56 -56c0 -18 -7 -31 -19 -43z" />
    <glyph glyph-name="Ucircumflex" unicode="&#xdb;" horiz-adv-x="657" 
d="M41 292v376h158v-389c0 -99 19 -162 130 -162c110 0 129 63 129 162v389h158v-376c0 -206 -80 -304 -287 -304c-209 0 -288 98 -288 304zM261 731h-129l147 133c13 11 30 19 49 19s36 -7 49 -19l148 -133h-129l-68 61z" />
    <glyph glyph-name="Udieresis" unicode="&#xdc;" horiz-adv-x="657" 
d="M329 -12c-209 0 -288 98 -288 304v376h158v-389c0 -99 19 -162 130 -162c110 0 129 63 129 162v389h158v-376c0 -206 -80 -304 -287 -304zM233 726c-39 0 -71 31 -71 70s32 71 71 71s70 -32 70 -71s-31 -70 -70 -70zM427 726c-39 0 -71 31 -71 70s32 71 71 71
c38 0 69 -32 69 -71s-31 -70 -69 -70z" />
    <glyph glyph-name="ugrave" unicode="&#xf9;" horiz-adv-x="570" 
d="M50 198v298h152v-260c0 -71 2 -130 76 -130c64 0 88 37 88 129v261h153v-496h-132l-21 70c-29 -49 -68 -82 -144 -82c-132 0 -172 75 -172 210zM154 629c-12 12 -19 25 -19 43c0 30 25 56 56 56c15 0 28 -6 38 -15l5 -5c0 -1 109 -134 109 -134h-114z" />
    <glyph glyph-name="uacute" unicode="&#xfa;" horiz-adv-x="570" 
d="M222 -12c-132 0 -172 75 -172 210v298h152v-260c0 -71 2 -130 76 -130c64 0 88 37 88 129v261h153v-496h-132l-21 70c-29 -49 -68 -82 -144 -82zM343 574h-114l111 135c4 5 17 18 41 18c32 0 56 -24 56 -56c0 -17 -7 -32 -19 -42z" />
    <glyph glyph-name="ucircumflex" unicode="&#xfb;" horiz-adv-x="570" 
d="M222 -12c-132 0 -172 75 -172 210v298h152v-260c0 -71 2 -130 76 -130c64 0 88 37 88 129v261h153v-496h-132l-21 70c-29 -49 -68 -82 -144 -82zM88 574l147 132c13 12 31 20 50 20s36 -8 50 -20l146 -132h-128l-68 61l-68 -61h-129z" />
    <glyph glyph-name="udieresis" unicode="&#xfc;" horiz-adv-x="570" 
d="M222 -12c-132 0 -172 75 -172 210v298h152v-260c0 -71 2 -130 76 -130c64 0 88 37 88 129v261h153v-496h-132l-21 70c-29 -49 -68 -82 -144 -82zM187 578c-39 0 -71 31 -71 70s32 71 71 71s70 -32 70 -71s-31 -70 -70 -70zM310 648c0 39 32 71 71 71c38 0 69 -32 69 -71
s-31 -70 -69 -70c-39 0 -71 31 -71 70z" />
    <glyph glyph-name="Cdotaccent" unicode="&#x10a;" horiz-adv-x="681" 
d="M369 -12c-208 0 -334 133 -334 346c0 211 131 346 338 346c126 0 223 -61 274 -155l-140 -51c-30 54 -85 76 -139 76c-93 0 -166 -80 -166 -216c0 -140 73 -216 168 -216c50 0 111 17 142 75l139 -51c-54 -95 -156 -154 -282 -154zM298 796c0 39 32 71 71 71
s70 -32 70 -71s-31 -70 -70 -70s-71 31 -71 70z" />
    <glyph glyph-name="cdotaccent" unicode="&#x10b;" horiz-adv-x="520" 
d="M278 -12c-164 0 -254 106 -254 263c0 156 103 259 254 259c85 0 178 -32 224 -130l-127 -46c-16 42 -50 58 -88 58c-55 0 -108 -37 -108 -142c0 -108 54 -144 108 -144c42 0 72 18 89 47l124 -45c-51 -90 -143 -120 -222 -120zM210 654c0 39 32 71 71 71s70 -32 70 -71
s-31 -70 -70 -70s-71 31 -71 70z" />
    <glyph glyph-name="dcaron" unicode="&#x10f;" horiz-adv-x="657" 
d="M243 -12c-128 0 -219 102 -219 264s91 258 219 258c54 0 119 -27 151 -82v240h152v-474c0 -50 3 -121 17 -194h-145l-20 67c-42 -57 -101 -79 -155 -79zM292 392c-60 0 -110 -49 -110 -140c0 -92 50 -146 110 -146c59 0 109 40 109 143c0 101 -50 143 -109 143zM576 496
l24 145c5 31 33 47 56 47c34 0 55 -30 55 -57c0 -6 -1 -12 -3 -17l-52 -118h-80z" />
    <glyph glyph-name="Ccaron" unicode="&#x10c;" horiz-adv-x="681" 
d="M35 334c0 211 131 346 338 346c126 0 223 -61 274 -155l-140 -51c-30 54 -85 76 -139 76c-93 0 -166 -80 -166 -216c0 -140 73 -216 168 -216c50 0 111 17 142 75l139 -51c-54 -95 -156 -154 -282 -154c-208 0 -334 133 -334 346zM173 877h129l68 -61l68 61h128
l-146 -133c-14 -12 -31 -19 -50 -19s-37 7 -50 19z" />
    <glyph glyph-name="ccaron" unicode="&#x10d;" horiz-adv-x="520" 
d="M24 251c0 156 103 259 254 259c85 0 178 -32 224 -130l-127 -46c-16 42 -50 58 -88 58c-55 0 -108 -37 -108 -142c0 -108 54 -144 108 -144c42 0 72 18 89 47l124 -45c-51 -90 -143 -120 -222 -120c-164 0 -254 106 -254 263zM235 587l-147 133h129l68 -61l68 61h128
l-146 -133c-14 -12 -31 -19 -50 -19s-37 7 -50 19z" />
    <glyph glyph-name="Dcaron" unicode="&#x10e;" horiz-adv-x="682" 
d="M44 0v668h220c218 0 387 -80 387 -334c0 -255 -169 -334 -387 -334h-220zM267 537h-65v-404h65c115 0 221 25 221 201s-106 203 -221 203zM134 877h129l68 -61l68 61h128l-146 -133c-14 -12 -31 -19 -50 -19s-37 7 -50 19z" />
    <glyph glyph-name="Edotaccent" unicode="&#x116;" horiz-adv-x="580" 
d="M44 668h514v-139h-356v-116h217v-139h-217v-135h356v-139h-514v668zM231 796c0 39 32 71 71 71s70 -32 70 -71s-31 -70 -70 -70s-71 31 -71 70z" />
    <glyph glyph-name="Emacron" unicode="&#x112;" horiz-adv-x="580" 
d="M44 0v668h514v-139h-356v-116h217v-139h-217v-135h356v-139h-514zM152 845h299v-98h-299v98z" />
    <glyph glyph-name="emacron" unicode="&#x113;" horiz-adv-x="566" 
d="M24 251c0 158 121 259 266 259c163 0 264 -125 254 -300h-367c5 -70 59 -104 115 -104c47 0 81 15 100 37l121 -44c-52 -76 -136 -111 -217 -111c-161 0 -272 99 -272 263zM140 570v98h299v-98h-299zM177 300h226c-2 64 -50 97 -109 97c-57 0 -108 -29 -117 -97z" />
    <glyph glyph-name="amacron" unicode="&#x101;" horiz-adv-x="548" 
d="M190 -12c-94 0 -171 56 -171 146c0 121 137 162 329 176v19c0 57 -30 78 -83 78c-42 0 -76 -19 -86 -59l-128 46c33 66 113 116 227 116c141 0 220 -57 220 -207v-109c0 -65 7 -151 17 -194h-141l-18 60c-37 -52 -95 -72 -166 -72zM437 570h-299v98h299v-98zM176 145
c0 -32 30 -53 70 -53c60 0 105 25 105 116v12c-105 -9 -175 -23 -175 -75z" />
    <glyph glyph-name="Abreve" unicode="&#x102;" horiz-adv-x="690" 
d="M5 0l253 668h174l253 -668h-172l-40 119h-256l-40 -119h-172zM345 731c-71 0 -131 52 -143 120h85c5 -21 28 -43 58 -43s54 22 59 43h85c-12 -68 -72 -120 -144 -120zM344 501l-84 -254h170z" />
    <glyph glyph-name="abreve" unicode="&#x103;" horiz-adv-x="548" 
d="M190 -12c-94 0 -171 56 -171 146c0 121 137 162 329 176v19c0 57 -30 78 -83 78c-42 0 -76 -19 -86 -59l-128 46c33 66 113 116 227 116c141 0 220 -57 220 -207v-109c0 -65 7 -151 17 -194h-141l-18 60c-37 -52 -95 -72 -166 -72zM144 689h85c5 -21 28 -43 58 -43
s54 22 59 43h85c-12 -68 -72 -120 -144 -120c-71 0 -131 52 -143 120zM176 145c0 -32 30 -53 70 -53c60 0 105 25 105 116v12c-105 -9 -175 -23 -175 -75z" />
    <glyph glyph-name="Gbreve" unicode="&#x11e;" horiz-adv-x="719" 
d="M35 336c0 211 138 344 340 344c117 0 216 -47 269 -138l-136 -56c-22 35 -66 64 -135 64c-95 0 -171 -73 -171 -214c0 -140 70 -218 174 -218c73 0 149 28 149 113v19h-150v128h308v-378h-104l-22 74c-43 -58 -109 -86 -205 -86c-196 0 -317 135 -317 348zM375 731
c-71 0 -131 52 -143 120h85c5 -21 28 -43 58 -43s54 22 59 43h85c-12 -68 -72 -120 -144 -120z" />
    <glyph glyph-name="gbreve" unicode="&#x11f;" horiz-adv-x="597" 
d="M24 259c0 173 106 252 209 252c63 0 124 -29 162 -83l20 68h131v-459c0 -167 -98 -240 -253 -240c-82 0 -174 27 -220 118l124 45c18 -36 57 -47 92 -47c61 0 106 26 106 94v89c-43 -53 -101 -78 -157 -78c-108 0 -214 90 -214 241zM182 267c0 -88 50 -131 110 -131
c59 0 109 30 109 127s-50 129 -109 129c-60 0 -110 -38 -110 -125zM297 569c-71 0 -131 52 -143 120h85c5 -21 28 -43 58 -43s54 22 59 43h85c-12 -68 -72 -120 -144 -120z" />
    <glyph glyph-name="Gdotaccent" unicode="&#x120;" horiz-adv-x="719" 
d="M35 336c0 211 138 344 340 344c117 0 216 -47 269 -138l-136 -56c-22 35 -66 64 -135 64c-95 0 -171 -73 -171 -214c0 -140 70 -218 174 -218c73 0 149 28 149 113v19h-150v128h308v-378h-104l-22 74c-43 -58 -109 -86 -205 -86c-196 0 -317 135 -317 348zM376 726
c-39 0 -71 31 -71 70s32 71 71 71s70 -32 70 -71s-31 -70 -70 -70z" />
    <glyph glyph-name="gdotaccent" unicode="&#x121;" horiz-adv-x="597" 
d="M24 259c0 173 106 252 209 252c63 0 124 -29 162 -83l20 68h131v-459c0 -167 -98 -240 -253 -240c-82 0 -174 27 -220 118l124 45c18 -36 57 -47 92 -47c61 0 106 26 106 94v89c-43 -53 -101 -78 -157 -78c-108 0 -214 90 -214 241zM292 392c-60 0 -110 -38 -110 -125
c0 -88 50 -131 110 -131c59 0 109 30 109 127s-50 129 -109 129zM232 648c0 39 32 71 71 71s70 -32 70 -71s-31 -70 -70 -70s-71 31 -71 70z" />
    <glyph glyph-name="Imacron" unicode="&#x12a;" horiz-adv-x="458" 
d="M57 124h94v420h-94v124h344v-124h-92v-420h92v-124h-344v124zM80 747v98h299v-98h-299z" />
    <glyph glyph-name="imacron" unicode="&#x12b;" horiz-adv-x="301" 
d="M24 496h247v-496h-153v381h-94v115zM325 570h-299v98h299v-98z" />
    <glyph glyph-name="Ohungarumlaut" unicode="&#x150;" horiz-adv-x="764" 
d="M381 -12c-205 0 -346 138 -346 346s141 346 346 346s348 -138 348 -346s-143 -346 -348 -346zM381 550c-97 0 -179 -74 -179 -216s82 -216 179 -216c98 0 180 74 180 216s-82 216 -180 216zM323 745h-114l109 133c2 1 14 20 43 20c32 0 56 -24 56 -56
c0 -17 -7 -32 -19 -42zM525 745h-114l109 133c2 1 14 20 43 20c32 0 56 -24 56 -56c0 -16 -7 -32 -19 -42z" />
    <glyph glyph-name="ohungarumlaut" unicode="&#x151;" horiz-adv-x="573" 
d="M24 250c0 179 125 260 263 260c136 0 262 -81 262 -260s-126 -262 -262 -262c-138 0 -263 83 -263 262zM287 392c-60 0 -108 -37 -108 -142c0 -104 46 -144 108 -144c61 0 107 40 107 144c0 105 -48 142 -107 142zM235 574h-114l109 133c2 1 14 20 43 20
c32 0 56 -24 56 -56c0 -17 -7 -32 -19 -42zM437 574h-114l109 133c2 1 14 20 43 20c32 0 56 -24 56 -56c0 -16 -7 -32 -19 -42z" />
    <glyph glyph-name="Rcaron" unicode="&#x158;" horiz-adv-x="654" 
d="M44 0v668h257c173 0 303 -41 303 -207c0 -76 -34 -158 -161 -192l194 -269h-183l-181 252h-71v-252h-158zM306 535h-104v-151h104c74 0 131 13 131 75s-57 76 -131 76zM258 744l-147 133h129l68 -61l68 61h128l-146 -133c-14 -12 -31 -19 -50 -19s-37 7 -50 19z" />
    <glyph glyph-name="rcaron" unicode="&#x159;" horiz-adv-x="372" 
d="M50 0v496h120l27 -91c31 80 84 109 160 105v-152c-16 2 -27 3 -41 3c-74 0 -114 -32 -114 -111v-250h-152zM25 720h129l68 -61l68 61h128l-146 -133c-14 -12 -31 -19 -50 -19s-37 7 -50 19z" />
    <glyph glyph-name="Sacute" unicode="&#x15a;" horiz-adv-x="619" 
d="M314 -12c-146 0 -248 62 -289 169l144 52c18 -64 72 -94 146 -94c57 0 119 18 119 70c0 47 -50 70 -122 84l-81 16c-109 21 -203 74 -203 188c0 143 149 207 283 207c108 0 214 -42 256 -145l-143 -52c-18 45 -64 70 -127 70c-61 0 -107 -23 -107 -64
c0 -34 30 -59 76 -68l90 -18c108 -22 240 -56 240 -194c0 -142 -144 -221 -282 -221zM379 731h-125s119 133 119 134l5 5c10 9 24 15 38 15c31 0 56 -25 56 -56c0 -18 -7 -31 -19 -43z" />
    <glyph glyph-name="sacute" unicode="&#x15b;" horiz-adv-x="534" 
d="M264 -12c-116 0 -205 43 -243 126l129 47c15 -42 60 -62 117 -62c49 0 94 15 94 46c0 21 -20 35 -77 45l-89 15c-96 16 -162 65 -162 148c0 104 105 157 228 157c95 0 183 -32 220 -110l-128 -47c-10 36 -48 46 -93 46c-54 0 -82 -14 -82 -40c0 -20 17 -32 61 -40l92 -17
c120 -22 176 -57 176 -140c0 -117 -110 -174 -243 -174zM211 574l111 135c4 5 17 18 41 18c32 0 56 -24 56 -56c0 -17 -7 -32 -19 -42l-75 -55h-114z" />
    <glyph glyph-name="Scedilla" unicode="&#x15e;" horiz-adv-x="619" 
d="M25 157l144 52c18 -64 72 -94 146 -94c57 0 119 18 119 70c0 47 -50 70 -122 84l-81 16c-109 21 -203 74 -203 188c0 143 149 207 283 207c108 0 214 -42 256 -145l-143 -52c-18 45 -64 70 -127 70c-61 0 -107 -23 -107 -64c0 -34 30 -59 76 -68l90 -18
c108 -22 240 -56 240 -194c0 -134 -127 -211 -257 -220l-23 -37c9 2 20 3 34 3c38 0 86 -16 86 -62c0 -58 -63 -80 -127 -80c-32 0 -63 5 -88 13l16 50c11 -6 37 -13 61 -13s44 7 44 27c0 16 -15 26 -37 26c-8 0 -18 -2 -27 -5c-6 -2 -12 -1 -17 2c-10 5 -14 18 -8 28l29 48
c-129 8 -219 69 -257 168z" />
    <glyph glyph-name="scedilla" unicode="&#x15f;" horiz-adv-x="534" 
d="M235 -11c-102 7 -179 49 -214 125l129 47c15 -42 60 -62 117 -62c49 0 94 15 94 46c0 21 -20 35 -77 45l-89 15c-96 16 -162 65 -162 148c0 104 105 157 228 157c95 0 183 -32 220 -110l-128 -47c-10 36 -48 46 -93 46c-54 0 -82 -14 -82 -40c0 -20 17 -32 61 -40l92 -17
c120 -22 176 -57 176 -140c0 -109 -95 -166 -216 -173l-23 -37c9 2 20 3 34 3c38 0 86 -16 86 -62c0 -58 -63 -80 -127 -80c-32 0 -63 5 -88 13l16 50c11 -6 37 -13 61 -13s44 7 44 27c0 16 -15 26 -37 26c-8 0 -18 -2 -27 -5c-6 -2 -12 -1 -17 2c-10 5 -14 18 -8 28z" />
    <glyph glyph-name="Scaron" unicode="&#x160;" horiz-adv-x="619" 
d="M25 157l144 52c18 -64 72 -94 146 -94c57 0 119 18 119 70c0 47 -50 70 -122 84l-81 16c-109 21 -203 74 -203 188c0 143 149 207 283 207c108 0 214 -42 256 -145l-143 -52c-18 45 -64 70 -127 70c-61 0 -107 -23 -107 -64c0 -34 30 -59 76 -68l90 -18
c108 -22 240 -56 240 -194c0 -142 -144 -221 -282 -221c-146 0 -248 62 -289 169zM262 744l-147 133h129l68 -61l68 61h128l-146 -133c-14 -12 -31 -19 -50 -19s-37 7 -50 19z" />
    <glyph glyph-name="scaron" unicode="&#x161;" horiz-adv-x="534" 
d="M264 -12c-116 0 -205 43 -243 126l129 47c15 -42 60 -62 117 -62c49 0 94 15 94 46c0 21 -20 35 -77 45l-89 15c-96 16 -162 65 -162 148c0 104 105 157 228 157c95 0 183 -32 220 -110l-128 -47c-10 36 -48 46 -93 46c-54 0 -82 -14 -82 -40c0 -20 17 -32 61 -40l92 -17
c120 -22 176 -57 176 -140c0 -117 -110 -174 -243 -174zM213 587l-147 133h129l68 -61l68 61h128l-146 -133c-14 -12 -31 -19 -50 -19s-37 7 -50 19z" />
    <glyph glyph-name="uni0218" unicode="&#x218;" horiz-adv-x="619" 
d="M356 403c108 -22 240 -56 240 -194c0 -142 -144 -221 -282 -221c-146 0 -248 62 -289 169l144 52c18 -64 72 -94 146 -94c57 0 119 18 119 70c0 47 -50 70 -122 84l-81 16c-109 21 -203 74 -203 188c0 143 149 207 283 207c108 0 214 -42 256 -145l-143 -52
c-18 45 -64 70 -127 70c-61 0 -107 -23 -107 -64c0 -34 30 -59 76 -68zM243 -251l-52 45c63 0 102 22 102 61c0 28 -30 51 -68 60l102 40c62 -25 84 -60 84 -96c0 -62 -60 -110 -168 -110z" />
    <glyph glyph-name="uni0219" unicode="&#x219;" horiz-adv-x="534" 
d="M331 302c120 -22 176 -57 176 -140c0 -117 -110 -174 -243 -174c-116 0 -205 43 -243 126l129 47c15 -42 60 -62 117 -62c49 0 94 15 94 46c0 21 -20 35 -77 45l-89 15c-96 16 -162 65 -162 148c0 104 105 157 228 157c95 0 183 -32 220 -110l-128 -47
c-10 36 -48 46 -93 46c-54 0 -82 -14 -82 -40c0 -20 17 -32 61 -40zM195 -251l-52 45c63 0 102 22 102 61c0 28 -30 51 -68 60l102 40c62 -25 84 -60 84 -96c0 -62 -60 -110 -168 -110z" />
    <glyph glyph-name="uni0162" unicode="&#x162;" horiz-adv-x="617" 
d="M15 668h587v-139h-215v-529h-157v529h-215v139zM241 -251l-52 45c63 0 102 22 102 61c0 28 -30 51 -68 60l102 40c62 -25 84 -60 84 -96c0 -62 -60 -110 -168 -110z" />
    <glyph glyph-name="uni0163" unicode="&#x163;" horiz-adv-x="379" 
d="M355 380h-108v-200c0 -47 15 -56 64 -56h44v-124h-96c-122 0 -164 23 -164 140v240h-82v116h82v124h152v-124h108v-116zM126 -251l-52 45c63 0 102 22 102 61c0 28 -30 51 -68 60l102 40c62 -25 84 -60 84 -96c0 -62 -60 -110 -168 -110z" />
    <glyph glyph-name="Tcaron" unicode="&#x164;" horiz-adv-x="617" 
d="M230 529h-215v139h587v-139h-215v-529h-157v529zM259 744l-147 133h129l68 -61l68 61h128l-146 -133c-14 -12 -31 -19 -50 -19s-37 7 -50 19z" />
    <glyph glyph-name="tcaron" unicode="&#x165;" horiz-adv-x="379" 
d="M13 380v116h82v124h152v-124h108v-116h-108v-200c0 -47 15 -56 64 -56h44v-124h-96c-122 0 -164 23 -164 140v240h-82zM374 553h-80l24 145c5 31 33 47 56 47c34 0 55 -30 55 -57c0 -6 -1 -12 -3 -17z" />
    <glyph glyph-name="uni021A" unicode="&#x21a;" horiz-adv-x="617" 
d="M15 668h587v-139h-215v-529h-157v529h-215v139zM241 -251l-52 45c63 0 102 22 102 61c0 28 -30 51 -68 60l102 40c62 -25 84 -60 84 -96c0 -62 -60 -110 -168 -110z" />
    <glyph glyph-name="uni021B" unicode="&#x21b;" horiz-adv-x="379" 
d="M355 380h-108v-200c0 -47 15 -56 64 -56h44v-124h-96c-122 0 -164 23 -164 140v240h-82v116h82v124h152v-124h108v-116zM126 -251l-52 45c63 0 102 22 102 61c0 28 -30 51 -68 60l102 40c62 -25 84 -60 84 -96c0 -62 -60 -110 -168 -110z" />
    <glyph glyph-name="Zacute" unicode="&#x179;" horiz-adv-x="621" 
d="M589 0h-557v121l337 408h-322v139h527v-121l-334 -408h349v-139zM379 731h-125s119 133 119 134l5 5c10 9 24 15 38 15c31 0 56 -25 56 -56c0 -18 -7 -31 -19 -43z" />
    <glyph glyph-name="zacute" unicode="&#x17a;" horiz-adv-x="516" 
d="M496 0h-466v121l257 254h-243v121h438v-121l-256 -254h270v-121zM211 574l111 135c4 5 17 18 41 18c32 0 56 -24 56 -56c0 -17 -7 -32 -19 -42l-75 -55h-114z" />
    <glyph glyph-name="Zdotaccent" unicode="&#x17b;" horiz-adv-x="621" 
d="M32 121l337 408h-322v139h527v-121l-334 -408h349v-139h-557v121zM312 726c-39 0 -71 31 -71 70s32 71 71 71s70 -32 70 -71s-31 -70 -70 -70z" />
    <glyph glyph-name="zdotaccent" unicode="&#x17c;" horiz-adv-x="516" 
d="M496 0h-466v121l257 254h-243v121h438v-121l-256 -254h270v-121zM193 648c0 39 32 71 71 71s70 -32 70 -71s-31 -70 -70 -70s-71 31 -71 70z" />
    <glyph glyph-name="Zcaron" unicode="&#x17d;" horiz-adv-x="621" 
d="M589 0h-557v121l337 408h-322v139h527v-121l-334 -408h349v-139zM114 877h129l68 -61l68 61h128l-146 -133c-14 -12 -31 -19 -50 -19s-37 7 -50 19z" />
    <glyph glyph-name="zcaron" unicode="&#x17e;" horiz-adv-x="516" 
d="M30 121l257 254h-243v121h438v-121l-256 -254h270v-121h-466v121zM67 720h129l68 -61l68 61h128l-146 -133c-14 -12 -31 -19 -50 -19s-37 7 -50 19z" />
    <glyph glyph-name="Umacron" unicode="&#x16a;" horiz-adv-x="657" 
d="M41 292v376h158v-389c0 -99 19 -162 130 -162c110 0 129 63 129 162v389h158v-376c0 -206 -80 -304 -287 -304c-209 0 -288 98 -288 304zM179 845h299v-98h-299v98z" />
    <glyph glyph-name="umacron" unicode="&#x16b;" horiz-adv-x="570" 
d="M50 496h152v-260c0 -71 2 -130 76 -130c64 0 88 37 88 129v261h153v-496h-132l-21 70c-29 -49 -68 -82 -144 -82c-132 0 -172 75 -172 210v298zM136 668h299v-98h-299v98z" />
    <glyph glyph-name="Uring" unicode="&#x16e;" horiz-adv-x="657" 
d="M329 -12c-209 0 -288 98 -288 304v376h158v-389c0 -99 19 -162 130 -162c110 0 129 63 129 162v389h158v-376c0 -206 -80 -304 -287 -304zM328 646c-73 0 -132 60 -132 133s59 132 132 132s133 -59 133 -132s-60 -133 -133 -133zM328 826c-26 0 -47 -21 -47 -47
s21 -47 47 -47s47 21 47 47s-21 47 -47 47z" />
    <glyph glyph-name="uring" unicode="&#x16f;" horiz-adv-x="570" 
d="M222 -12c-132 0 -172 75 -172 210v298h152v-260c0 -71 2 -130 76 -130c64 0 88 37 88 129v261h153v-496h-132l-21 70c-29 -49 -68 -82 -144 -82zM285 535c-73 0 -132 60 -132 133s59 132 132 132s133 -59 133 -132s-60 -133 -133 -133zM238 668c0 -26 21 -47 47 -47
s47 21 47 47s-21 47 -47 47s-47 -21 -47 -47z" />
    <glyph glyph-name="Uhungarumlaut" unicode="&#x170;" horiz-adv-x="657" 
d="M41 292v376h158v-389c0 -99 19 -162 130 -162c110 0 129 63 129 162v389h158v-376c0 -206 -80 -304 -287 -304c-209 0 -288 98 -288 304zM156 746l109 133c2 1 14 20 43 20c32 0 56 -24 56 -56c0 -17 -7 -32 -19 -42l-75 -55h-114zM472 746h-114l109 133c2 1 14 20 43 20
c32 0 56 -24 56 -56c0 -16 -7 -32 -19 -42z" />
    <glyph glyph-name="uhungarumlaut" unicode="&#x171;" horiz-adv-x="570" 
d="M222 -12c-132 0 -172 75 -172 210v298h152v-260c0 -71 2 -130 76 -130c64 0 88 37 88 129v261h153v-496h-132l-21 70c-29 -49 -68 -82 -144 -82zM234 574h-114l109 133c2 1 14 20 43 20c32 0 56 -24 56 -56c0 -17 -7 -32 -19 -42zM322 574l109 133c2 1 14 20 43 20
c32 0 56 -24 56 -56c0 -16 -7 -32 -19 -42l-75 -55h-114z" />
    <glyph glyph-name="Uogonek" unicode="&#x172;" horiz-adv-x="657" 
d="M41 668h158v-389c0 -99 19 -162 130 -162c110 0 129 63 129 162v389h158v-376c0 -176 -59 -274 -205 -298c-34 -11 -70 -35 -70 -62c0 -24 24 -30 46 -30c20 0 41 7 49 9v-75c-15 -5 -54 -10 -79 -10c-108 0 -142 51 -142 89c0 37 26 61 56 76c-166 17 -230 115 -230 301
v376z" />
    <glyph glyph-name="Racute" unicode="&#x154;" horiz-adv-x="654" 
d="M202 0h-158v668h257c173 0 303 -41 303 -207c0 -76 -34 -158 -161 -192l194 -269h-183l-181 252h-71v-252zM306 535h-104v-151h104c74 0 131 13 131 75s-57 76 -131 76zM387 731h-125s119 133 119 134l5 5c10 9 24 15 38 15c31 0 56 -25 56 -56c0 -18 -7 -31 -19 -43z
" />
    <glyph glyph-name="racute" unicode="&#x155;" horiz-adv-x="372" 
d="M202 0h-152v496h120l27 -91c31 80 84 109 160 105v-152c-16 2 -27 3 -41 3c-74 0 -114 -32 -114 -111v-250zM270 574h-114l111 135c4 5 17 18 41 18c32 0 56 -24 56 -56c0 -17 -7 -32 -19 -42z" />
    <glyph glyph-name="uogonek" unicode="&#x173;" horiz-adv-x="573" 
d="M51 198v298h152v-260c0 -71 2 -130 76 -130c64 0 88 37 88 129v261h153v-496c-46 -23 -95 -44 -95 -68s24 -30 46 -30c20 0 41 7 49 9v-75c-15 -5 -54 -10 -79 -10c-108 0 -142 51 -142 89c0 44 48 77 88 87l-20 68c-29 -49 -68 -82 -144 -82c-132 0 -172 75 -172 210z
" />
    </font>
</defs>
</svg>
